Maywood - Video clips [2013, Eurodance, Disco, Pop, TVRip, DVD5 (custom)]

Ответить на тему
Статистика раздачи [Обновить пиров]
Размер:  1.61 GB   |    Зарегистрирован:  1 год 11 месяцев   |    Скачан:  0 раз

Полного источника не было: Никогда

 
   
 
 
 
Автор Сообщение

islamvillage.com

Создавать темы 15-Фев-2017 22:30

[Цитировать]

Maywood video clips
Страна: Netherlands
Жанр: Eurodance, Disco, Pop
Продолжительность: 00:35:12
Год выхода: 2013 г.
Описание: 11 видеоклипов Maywood.
Треклист:
1 Colour my rainbow - 3:18
2 Standing in the twilight - 3:26
3 Late at night - 3:10
4 Pasadena - 3:31
5 Rio - 3:15
6 Get away - 4:08
7 I believe in love - 3:01
8 Distant love - 3:04
9 Star - 3:02
10 Stay with me - 3:19
11 Standing in the twilght (Nederland Muziekland 1984) - 2:58
Доп. информация:
Видеоклипы разбиты на главы по файлу на каждую. Тем самым дана возможность скачать их по одному.
Особенности поведения меню:
- на гланой странице можно запустить любой клип, после чего воспроизведение продолжится вплоть до последнего по нумерации клипа с возвратом на ту же главную страницу меню;
- на второй и третьей страницах можно запустить каждый клип по отдельности с возвратом на ту же страницу меню;
Разбивка на главы по трекам: есть
Качество : TVRip
Формат файла: DVD video
Видео кодек: MPEG2
Аудио кодек: MP2
Видео: MPEG2 Video 720x576 (4:3) 5 562 Kbps 25fps
Аудио: MPEG Audio 48000Hz stereo 224kbps 2 channels

DVDinfo

Format : MPEG-PSFile size : 165 MiBDuration : 4mn 8sOverall bit rate mode : VariableOverall bit rate : 5 562 Kbps
VideoID : 224 (0xE0)Format : MPEG VideoFormat version : Version 2Format profile : Main@MainFormat settings, BVOP : YesFormat settings, Matrix : DefaultFormat settings, GOP : M=3, N=12Duration : 4mn 8sBit rate mode : VariableBit rate : 5 228 KbpsMaximum bit rate : 12.0 MbpsWidth : 720 pixelsHeight : 576 pixelsDisplay aspect ratio : 4:3Frame rate : 25.000 fpsStandard : PALColor space : YUVChroma subsampling : 4:2:0Bit depth : 8 bitsScan type : ProgressiveScan order : Bottom Field FirstCompression mode : LossyBits/(Pixel*Frame) : 0.504Time code of first frame : 00:00:00:00Time code source : Group of pictures headerStream size : 155 MiB (94%)
AudioID : 192 (0xC0)Format : MPEG AudioFormat version : Version 1Format profile : Layer 2Duration : 4mn 8sBit rate mode : ConstantBit rate : 224 KbpsChannel(s) : 2 channelsSampling rate : 48.0 KHzCompression mode : LossyStream size : 6.64 MiB (4%)

Скриншоты меню

Скриншоты



[islamvillage.com]_torrent-4556710.torrent
Торрент: Зарегистрирован ·  [ 2017-02-15 22:12 ] ·  74b93fa015f849540fdc70a7f8d2aaf0a3ac163a

18 KB

Статус: проверено
Скачан: 0 раз
Размер: 1.61 GB
Оценка: 
(Голосов: 0)
Сказали спасибо: 0  Спасибо
Похожие темы
[Профиль]    [ЛС]
Показать сообщения:    
Ответить на тему

Текущее время: Сегодня 06:51

Часовой пояс: GMT + 7



Вы не можете начинать темы
Вы не можете отвечать на сообщения
Вы не можете редактировать свои сообщения
Вы не можете удалять свои сообщения
Вы не можете голосовать в опросах
Вы не можете прикреплять файлы к сообщениям
Вы можете скачивать файлы


Mamma Mia! Ci risiamo | 2×05 Emilia Romagna | Nicholas Farrell