(Avant Progressive Metal) [CD] The Hirsch Effekt - Eskapist - 2017, FLAC (tracks+.cue), lossless

Ответить на тему
Статистика раздачи [Обновить пиров]
Размер:  404 MB   |    Зарегистрирован:  1 год 3 месяца   |    Скачан:  0 раз

Полного источника не было: Никогда

 
   
 
 
 
Автор Сообщение

islamvillage.com

Создавать темы 25-Сен-2017 10:58

[Цитировать]

The Hirsch Effekt / Eskapist
Жанр: Avant Progressive Metal
Носитель: CD
Год издания: 2017
Издатель (лейбл): Long Branch Records
Номер по каталогу: 284142
Страна исполнителя (группы): Germany
Аудиокодек: FLAC (*.flac)
Тип рипа: tracks+.cue
Битрейт аудио: lossless
Продолжительность: 01:01:13
Источник (релизер): Waffles
Наличие сканов в содержимом раздачи: нет
Треклист:
1. Lifnej (06:37)
2. Xenophotopia (07:04)
3. Natans (09:18)
4. Coda (00:42)
5. Berceuse (04:24)
6. Tardigrada (01:56)
7. Nocturne (01:21)
8. Aldebaran (03:21)
9. Inukshuk (05:04)
10. Autio (01:37)
11. Lysios (14:15)
12. Acharej (05:41)

Лог создания рипа

Exact Audio Copy V1.3 from 2. September 2016
EAC extraction logfile from 24. August 2017, 2:08
The Hirsch Effekt / Eskapist
Used drive : TS8XDVDRTranscend Adapter: 1 ID: 0
Read mode : SecureUtilize accurate stream : YesDefeat audio cache : YesMake use of C2 pointers : No
Read offset correction : 6Overread into Lead-In and Lead-Out : NoFill up missing offset samples with silence : YesDelete leading and trailing silent blocks : NoNull samples used in CRC calculations : YesUsed interface : Native Win32 interface for Win NT & 2000Gap handling : Appended to previous track
Used output format : User Defined EncoderSelected bitrate : 1024 kBit/sQuality : HighAdd ID3 tag : NoCommand line compressor : C:\Program Files (x86)\Exact Audio Copy\Flac\flac.exeAdditional command line options : -8 -V -T "artist=%artist%" -T "title=%title%" -T "album=%albumtitle%" -T "date=%year%" -T "tracknumber=%tracknr%" -T "genre=%genre%" %source%
TOC of the extracted CD
Track | Start | Length | Start sector | End sector --------------------------------------------------------- 1 | 0:00.00 | 6:36.26 | 0 | 29725 2 | 6:36.26 | 7:03.06 | 29726 | 61456 3 | 13:39.32 | 9:17.23 | 61457 | 103254 4 | 22:56.55 | 0:41.53 | 103255 | 106382 5 | 23:38.33 | 4:23.11 | 106383 | 126118 6 | 28:01.44 | 1:55.57 | 126119 | 134800 7 | 29:57.26 | 1:20.05 | 134801 | 140805 8 | 31:17.31 | 3:20.06 | 140806 | 155811 9 | 34:37.37 | 5:03.67 | 155812 | 178603 10 | 39:41.29 | 1:36.10 | 178604 | 185813 11 | 41:17.39 | 14:14.25 | 185814 | 249888 12 | 55:31.64 | 5:40.11 | 249889 | 275399
Track 1
Filename C:\The Hirsch Effekt - Eskapist (2017) [SPV 284142 CD] {FLAC}\01 - Lifnej.wav
Pre-gap length 0:00:02.00
Peak level 98.2 % Extraction speed 2.9 X Track quality 100.0 % Test CRC 301E467B Copy CRC 301E467B Track not present in AccurateRip database Copy OK
Track 2
Filename C:\The Hirsch Effekt - Eskapist (2017) [SPV 284142 CD] {FLAC}\02 - Xenophotopia.wav
Peak level 98.2 % Extraction speed 3.4 X Track quality 100.0 % Test CRC 90625CFA Copy CRC 90625CFA Track not present in AccurateRip database Copy OK
Track 3
Filename C:\The Hirsch Effekt - Eskapist (2017) [SPV 284142 CD] {FLAC}\03 - Natans.wav
Peak level 98.2 % Extraction speed 3.9 X Track quality 100.0 % Test CRC C80F4998 Copy CRC C80F4998 Track not present in AccurateRip database Copy OK
Track 4
Filename C:\The Hirsch Effekt - Eskapist (2017) [SPV 284142 CD] {FLAC}\04 - -Coda-.wav
Peak level 97.7 % Extraction speed 2.2 X Track quality 100.0 % Test CRC 0561A6EA Copy CRC 0561A6EA Track not present in AccurateRip database Copy OK
Track 5
Filename C:\The Hirsch Effekt - Eskapist (2017) [SPV 284142 CD] {FLAC}\05 - Berceuse.wav
Peak level 98.2 % Extraction speed 4.0 X Track quality 100.0 % Test CRC 22CBC294 Copy CRC 22CBC294 Track not present in AccurateRip database Copy OK
Track 6
Filename C:\The Hirsch Effekt - Eskapist (2017) [SPV 284142 CD] {FLAC}\06 - Tardigrada.wav
Peak level 98.2 % Extraction speed 3.5 X Track quality 100.0 % Test CRC 7F12D7D2 Copy CRC 7F12D7D2 Track not present in AccurateRip database Copy OK
Track 7
Filename C:\The Hirsch Effekt - Eskapist (2017) [SPV 284142 CD] {FLAC}\07 - -Nocturne-.wav
Peak level 75.2 % Extraction speed 3.2 X Track quality 100.0 % Test CRC 9573F577 Copy CRC 9573F577 Track not present in AccurateRip database Copy OK
Track 8
Filename C:\The Hirsch Effekt - Eskapist (2017) [SPV 284142 CD] {FLAC}\08 - Aldebaran.wav
Peak level 98.2 % Extraction speed 4.1 X Track quality 100.0 % Test CRC E9E42F67 Copy CRC E9E42F67 Track not present in AccurateRip database Copy OK
Track 9
Filename C:\The Hirsch Effekt - Eskapist (2017) [SPV 284142 CD] {FLAC}\09 - Inukshuk.wav
Peak level 98.2 % Extraction speed 4.5 X Track quality 100.0 % Test CRC 86B941CD Copy CRC 86B941CD Track not present in AccurateRip database Copy OK
Track 10
Filename C:\The Hirsch Effekt - Eskapist (2017) [SPV 284142 CD] {FLAC}\10 - -Autio-.wav
Peak level 93.5 % Extraction speed 3.7 X Track quality 100.0 % Test CRC 001342EA Copy CRC 001342EA Track not present in AccurateRip database Copy OK
Track 11
Filename C:\The Hirsch Effekt - Eskapist (2017) [SPV 284142 CD] {FLAC}\11 - Lysios.wav
Peak level 98.2 % Extraction speed 5.3 X Track quality 100.0 % Test CRC 7EF3DBDD Copy CRC 7EF3DBDD Track not present in AccurateRip database Copy OK
Track 12
Filename C:\The Hirsch Effekt - Eskapist (2017) [SPV 284142 CD] {FLAC}\12 - Acharej.wav
Peak level 98.2 % Extraction speed 5.3 X Track quality 100.0 % Test CRC 75FD96FB Copy CRC 75FD96FB Track not present in AccurateRip database Copy OK
None of the tracks are present in the AccurateRip database
No errors occurred
End of status report
==== Log checksum 29A50A23BFF42D63662588DCBB05A9683DADC63F95E163C5D53FC66F9EAB2D86 ====

Содержание индексной карты (.CUE)

REM DATE 2017REM DISCID C40E580CREM COMMENT "ExactAudioCopy v1.3"PERFORMER "The Hirsch Effekt"TITLE "Eskapist"REM COMPOSER ""FILE "01 - Lifnej.wav" WAVE TRACK 01 AUDIO TITLE "Lifnej" PERFORMER "The Hirsch Effekt" REM COMPOSER "" ISRC DEA451707700 INDEX 01 00:00:00FILE "02 - Xenophotopia.wav" WAVE TRACK 02 AUDIO TITLE "Xenophotopia" PERFORMER "The Hirsch Effekt" REM COMPOSER "" ISRC DEA451707710 INDEX 01 00:00:00FILE "03 - Natans.wav" WAVE TRACK 03 AUDIO TITLE "Natans" PERFORMER "The Hirsch Effekt" REM COMPOSER "" ISRC DEA451707720 INDEX 01 00:00:00FILE "04 - -Coda-.wav" WAVE TRACK 04 AUDIO TITLE "-Coda-" PERFORMER "The Hirsch Effekt" REM COMPOSER "" ISRC DEA451707730 INDEX 01 00:00:00FILE "05 - Berceuse.wav" WAVE TRACK 05 AUDIO TITLE "Berceuse" PERFORMER "The Hirsch Effekt" REM COMPOSER "" ISRC DEA451707740 INDEX 01 00:00:00FILE "06 - Tardigrada.wav" WAVE TRACK 06 AUDIO TITLE "Tardigrada" PERFORMER "The Hirsch Effekt" REM COMPOSER "" ISRC DEA451707750 INDEX 01 00:00:00FILE "07 - -Nocturne-.wav" WAVE TRACK 07 AUDIO TITLE "-Nocturne-" PERFORMER "The Hirsch Effekt" REM COMPOSER "" ISRC DEA451707760 INDEX 01 00:00:00FILE "08 - Aldebaran.wav" WAVE TRACK 08 AUDIO TITLE "Aldebaran" PERFORMER "The Hirsch Effekt" REM COMPOSER "" ISRC DEA451707760 INDEX 01 00:00:00FILE "09 - Inukshuk.wav" WAVE TRACK 09 AUDIO TITLE "Inukshuk" PERFORMER "The Hirsch Effekt" REM COMPOSER "" ISRC DEA451707770 INDEX 01 00:00:00FILE "10 - -Autio-.wav" WAVE TRACK 10 AUDIO TITLE "-Autio-" PERFORMER "The Hirsch Effekt" REM COMPOSER "" ISRC DEA451707790 INDEX 01 00:00:00FILE "11 - Lysios.wav" WAVE TRACK 11 AUDIO TITLE "Lysios" PERFORMER "The Hirsch Effekt" REM COMPOSER "" ISRC DEA451707790 INDEX 01 00:00:00FILE "12 - Acharej.wav" WAVE TRACK 12 AUDIO TITLE "Acharej" PERFORMER "The Hirsch Effekt" REM COMPOSER "" ISRC DEA451707810 INDEX 01 00:00:00


[islamvillage.com]_t_5456971.torrent
Торрент: Зарегистрирован ·  [ 2017-09-25 10:48 ] ·  73301c5b3f0fd0c7649af6c835fe368353d888a7

33 KB

Статус: проверено
Скачан: 0 раз
Размер: 404 MB
Оценка: 
(Голосов: 0)
Сказали спасибо: 0  Спасибо
Похожие темы
[Профиль]    [ЛС]
Показать сообщения:    
Ответить на тему

Текущее время: Сегодня 04:52

Часовой пояс: GMT + 7



Вы не можете начинать темы
Вы не можете отвечать на сообщения
Вы не можете редактировать свои сообщения
Вы не можете удалять свои сообщения
Вы не можете голосовать в опросах
Вы не можете прикреплять файлы к сообщениям
Вы можете скачивать файлы


한국어 | Bracelet Infinity Infiny Mode Strass Femme Zirconium Idée Cadeau Bijoux Amitié | Dr Phil S17E69 Episode 69