(Ska-Punk/Ska/Skamusic) Skarface - Last Music Warriors - 2000, FLAC (tracks+.cue), lossless

Ответить на тему
Статистика раздачи [Обновить пиров]
Размер:  405 MB   |    Зарегистрирован:  1 год 3 месяца   |    Скачан:  0 раз

Полного источника не было: Никогда

 
   
 
 
 
Автор Сообщение

islamvillage.com

Создавать темы 09-Окт-2017 18:50

[Цитировать]

Skarface - Last Music Warriors- Жанр: SkaPunk/Ska
Год выхода диска: 2000
Производитель диска: France
Аудио кодек: FLAC
Тип рипа: tracks+.cue
Битрейт аудио: lossless
Продолжительность: 01:00:13
-
01. The Skarface train
02. Toujours la
03. Doc Martens boots
04. Jungle ska
05. War is the air
06. If you feel alone
07. Oh darling...
08. Pas pour nous
09. Voices
10. Oh he
11. Rude-boys invasion
12. Pas concerne
13. Japanese utchiyage
14. Volontaire
15. Alone in the back
16. On tour
17. Young devils
18. Jazz experiment
19. Kids on the streets
20. C'est fini
-

EAC

Exact Audio Copy V0.99 prebeta 4 from 23. January 2008
Отчёт EAC об извлечении, выполненном 8. апреля 2008, 1:58
Skarface / Last Music Warriors
Дисковод: TSSTcorpCDDVDW SH-S202H Adapter: 0 ID: 0
Режим чтения : ДостоверностьИспользование точного потока : ДаОтключение кэша аудио : НетИспользование указателей C2 : Нет
Коррекция смещения при чтении : 6Способность читать области Lead-in и Lead-out : НетЗаполнение пропущенных сэмплов тишиной : ДаУдаление блоков с тишиной в начале и конце : НетПри вычислениях CRC использовались нулевые сэмплы : НетИнтерфейс : Встроенный Win32-интерфейс для Win NT/2000Обработка зазоров : Добавлено к предыдущему треку
Выходной формат : Пользовательский кодировщикВыбранный битрейт : 768 kBit/sКачество : ВысокийДобавление ID3-тэга : НетУтилита сжатия : C:\Program Files (x86)\FLAC\flac.exeДополнительные параметры : -T "artist=%a" -T "title=%t" -T "album=%g" -T "date=%y" -T "tracknumber=%n" -T "genre=%m" -8 %s
TOC извлечённого CD
Трек | Старт | Длительность | Начальный сектор | Конечный сектор --------------------------------------------------------------------- 1 | 1:46.00 | 2:09.52 | 7950 | 17676 2 | 3:55.52 | 3:51.35 | 17677 | 35036 3 | 7:47.12 | 2:22.08 | 35037 | 45694 4 | 10:09.20 | 3:00.57 | 45695 | 59251 5 | 13:10.02 | 2:30.58 | 59252 | 70559 6 | 15:40.60 | 2:08.20 | 70560 | 80179 7 | 17:49.05 | 4:07.52 | 80180 | 98756 8 | 21:56.57 | 2:35.08 | 98757 | 110389 9 | 24:31.65 | 2:59.50 | 110390 | 123864 10 | 27:31.40 | 1:34.20 | 123865 | 130934 11 | 29:05.60 | 4:02.05 | 130935 | 149089 12 | 33:07.65 | 2:50.60 | 149090 | 161899 13 | 35:58.50 | 2:09.20 | 161900 | 171594 14 | 38:07.70 | 2:52.62 | 171595 | 184556 15 | 41:00.57 | 3:40.53 | 184557 | 201109 16 | 44:41.35 | 3:35.07 | 201110 | 217241 17 | 48:16.42 | 2:50.45 | 217242 | 230036 18 | 51:07.12 | 3:03.03 | 230037 | 243764 19 | 54:10.15 | 2:55.45 | 243765 | 256934 20 | 57:05.60 | 4:53.42 | 256935 | 278951
Трек 1
Имя файла D:\Rips\Skarface\Last Music Warriors\01 - The Skarface Train.wav
Длина предзазора 0:01:48.00
Пиковый уровень 100.0 % Качество трека 100.0 % CRC теста 41AEA66E CRC копии 41AEA66E Копирование... OK
Трек 2
Имя файла D:\Rips\Skarface\Last Music Warriors\02 - Toujours La.wav
Пиковый уровень 100.0 % Качество трека 100.0 % CRC теста 8E67B840 CRC копии 8E67B840 Копирование... OK
Трек 3
Имя файла D:\Rips\Skarface\Last Music Warriors\03 - Doc Martens Boots.wav
Пиковый уровень 100.0 % Качество трека 99.9 % CRC теста 75158794 CRC копии 75158794 Копирование... OK
Трек 4
Имя файла D:\Rips\Skarface\Last Music Warriors\04 - Jungle Ska.wav
Пиковый уровень 100.0 % Качество трека 100.0 % CRC теста 60921E7E CRC копии 60921E7E Копирование... OK
Трек 5
Имя файла D:\Rips\Skarface\Last Music Warriors\05 - War Is The Air.wav
Пиковый уровень 100.0 % Качество трека 99.9 % CRC теста 8DAD5E29 CRC копии 8DAD5E29 Копирование... OK
Трек 6
Имя файла D:\Rips\Skarface\Last Music Warriors\06 - If You Feel Alone.wav
Пиковый уровень 100.0 % Качество трека 100.0 % CRC теста 808EBECB CRC копии 808EBECB Копирование... OK
Трек 7
Имя файла D:\Rips\Skarface\Last Music Warriors\07 - Oh Darling.wav
Пиковый уровень 100.0 % Качество трека 99.9 % CRC теста 50995B09 CRC копии 50995B09 Копирование... OK
Трек 8
Имя файла D:\Rips\Skarface\Last Music Warriors\08 - Pas Pour Nous.wav
Пиковый уровень 100.0 % Качество трека 100.0 % CRC теста F5D439D6 CRC копии F5D439D6 Копирование... OK
Трек 9
Имя файла D:\Rips\Skarface\Last Music Warriors\09 - Voices.wav
Пиковый уровень 100.0 % Качество трека 99.9 % CRC теста C938B025 CRC копии C938B025 Копирование... OK
Трек 10
Имя файла D:\Rips\Skarface\Last Music Warriors\10 - Oh He.wav
Пиковый уровень 100.0 % Качество трека 100.0 % CRC теста C41B839B CRC копии C41B839B Копирование... OK
Трек 11
Имя файла D:\Rips\Skarface\Last Music Warriors\11 - Rude-Boys Invasion.wav
Пиковый уровень 100.0 % Качество трека 99.9 % CRC теста B2C8E881 CRC копии B2C8E881 Копирование... OK
Трек 12
Имя файла D:\Rips\Skarface\Last Music Warriors\12 - Pas Concerne.wav
Пиковый уровень 100.0 % Качество трека 100.0 % CRC теста 6B298894 CRC копии 6B298894 Копирование... OK
Трек 13
Имя файла D:\Rips\Skarface\Last Music Warriors\13 - Japanese Utchiyage.wav
Пиковый уровень 100.0 % Качество трека 100.0 % CRC теста BBB7607F CRC копии BBB7607F Копирование... OK
Трек 14
Имя файла D:\Rips\Skarface\Last Music Warriors\14 - Volontaire.wav
Пиковый уровень 100.0 % Качество трека 100.0 % CRC теста 9A35AC0A CRC копии 9A35AC0A Копирование... OK
Трек 15
Имя файла D:\Rips\Skarface\Last Music Warriors\15 - Alone In The Back.wav
Пиковый уровень 100.0 % Качество трека 100.0 % CRC теста 679BFAC3 CRC копии 679BFAC3 Копирование... OK
Трек 16
Имя файла D:\Rips\Skarface\Last Music Warriors\16 - On Tour.wav
Пиковый уровень 100.0 % Качество трека 100.0 % CRC теста D0AADD0C CRC копии D0AADD0C Копирование... OK
Трек 17
Имя файла D:\Rips\Skarface\Last Music Warriors\17 - Young Devils.wav
Пиковый уровень 100.0 % Качество трека 100.0 % CRC теста 0887EA70 CRC копии 0887EA70 Копирование... OK
Трек 18
Имя файла D:\Rips\Skarface\Last Music Warriors\18 - Jazz Experiment.wav
Пиковый уровень 100.0 % Качество трека 100.0 % CRC теста F48F5F49 CRC копии F48F5F49 Копирование... OK
Трек 19
Имя файла D:\Rips\Skarface\Last Music Warriors\19 - Kids On The Streets.wav
Пиковый уровень 100.0 % Качество трека 100.0 % CRC теста 9938F8E1 CRC копии 9938F8E1 Копирование... OK
Трек 20
Имя файла D:\Rips\Skarface\Last Music Warriors\20 - C'est Fini.wav
Пиковый уровень 100.0 % Качество трека 99.9 % CRC теста 4D66A9AB CRC копии 4D66A9AB Копирование... OK
Ошибок не произошло
Конец отчёта

Оригинальный .cue

REM GENRE SkaREM DATE 2000REM DISCID 3C0E1D14REM COMMENT "ExactAudioCopy v0.99pb4"PERFORMER "Skarface"TITLE "Last Music Warriors"FILE "Skarface\Last Music Warriors\01 - The Skarface Train.wav" WAVE TRACK 01 AUDIO TITLE "The Skarface Train" PERFORMER "Skarface" PREGAP 01:46:00 INDEX 01 00:00:00FILE "Skarface\Last Music Warriors\02 - Toujours La.wav" WAVE TRACK 02 AUDIO TITLE "Toujours La" PERFORMER "Skarface" INDEX 01 00:00:00FILE "Skarface\Last Music Warriors\03 - Doc Martens Boots.wav" WAVE TRACK 03 AUDIO TITLE "Doc Martens Boots" PERFORMER "Skarface" INDEX 01 00:00:00FILE "Skarface\Last Music Warriors\04 - Jungle Ska.wav" WAVE TRACK 04 AUDIO TITLE "Jungle Ska" PERFORMER "Skarface" INDEX 01 00:00:00FILE "Skarface\Last Music Warriors\05 - War Is The Air.wav" WAVE TRACK 05 AUDIO TITLE "War Is The Air" PERFORMER "Skarface" INDEX 01 00:00:00FILE "Skarface\Last Music Warriors\06 - If You Feel Alone.wav" WAVE TRACK 06 AUDIO TITLE "If You Feel Alone" PERFORMER "Skarface" INDEX 01 00:00:00FILE "Skarface\Last Music Warriors\07 - Oh Darling.wav" WAVE TRACK 07 AUDIO TITLE "Oh Darling" PERFORMER "Skarface" INDEX 01 00:00:00FILE "Skarface\Last Music Warriors\08 - Pas Pour Nous.wav" WAVE TRACK 08 AUDIO TITLE "Pas Pour Nous" PERFORMER "Skarface" INDEX 01 00:00:00FILE "Skarface\Last Music Warriors\09 - Voices.wav" WAVE TRACK 09 AUDIO TITLE "Voices" PERFORMER "Skarface" INDEX 01 00:00:00FILE "Skarface\Last Music Warriors\10 - Oh He.wav" WAVE TRACK 10 AUDIO TITLE "Oh He" PERFORMER "Skarface" INDEX 01 00:00:00FILE "Skarface\Last Music Warriors\11 - Rude-Boys Invasion.wav" WAVE TRACK 11 AUDIO TITLE "Rude-Boys Invasion" PERFORMER "Skarface" INDEX 01 00:00:00FILE "Skarface\Last Music Warriors\12 - Pas Concerne.wav" WAVE TRACK 12 AUDIO TITLE "Pas Concerne" PERFORMER "Skarface" INDEX 01 00:00:00FILE "Skarface\Last Music Warriors\13 - Japanese Utchiyage.wav" WAVE TRACK 13 AUDIO TITLE "Japanese Utchiyage" PERFORMER "Skarface" INDEX 01 00:00:00FILE "Skarface\Last Music Warriors\14 - Volontaire.wav" WAVE TRACK 14 AUDIO TITLE "Volontaire" PERFORMER "Skarface" INDEX 01 00:00:00FILE "Skarface\Last Music Warriors\15 - Alone In The Back.wav" WAVE TRACK 15 AUDIO TITLE "Alone In The Back" PERFORMER "Skarface" INDEX 01 00:00:00FILE "Skarface\Last Music Warriors\16 - On Tour.wav" WAVE TRACK 16 AUDIO TITLE "On Tour" PERFORMER "Skarface" INDEX 01 00:00:00FILE "Skarface\Last Music Warriors\17 - Young Devils.wav" WAVE TRACK 17 AUDIO TITLE "Young Devils" PERFORMER "Skarface" INDEX 01 00:00:00FILE "Skarface\Last Music Warriors\18 - Jazz Experiment.wav" WAVE TRACK 18 AUDIO TITLE "Jazz Experiment" PERFORMER "Skarface" INDEX 01 00:00:00FILE "Skarface\Last Music Warriors\19 - Kids On The Streets.wav" WAVE TRACK 19 AUDIO TITLE "Kids On The Streets" PERFORMER "Skarface" INDEX 01 00:00:00FILE "Skarface\Last Music Warriors\20 - C'est Fini.wav" WAVE TRACK 20 AUDIO TITLE "C'est Fini" PERFORMER "Skarface" INDEX 01 00:00:00

мой подкорректированный .cue (с затертыми путями)

REM GENRE SkaREM DATE 2000REM DISCID 3C0E1D14REM COMMENT "ExactAudioCopy v0.99pb4"PERFORMER "Skarface"TITLE "Last Music Warriors"FILE "01 - The Skarface Train.wav" WAVE TRACK 01 AUDIO TITLE "The Skarface Train" PERFORMER "Skarface" PREGAP 01:46:00 INDEX 01 00:00:00FILE "02 - Toujours La.wav" WAVE TRACK 02 AUDIO TITLE "Toujours La" PERFORMER "Skarface" INDEX 01 00:00:00FILE "03 - Doc Martens Boots.wav" WAVE TRACK 03 AUDIO TITLE "Doc Martens Boots" PERFORMER "Skarface" INDEX 01 00:00:00FILE "04 - Jungle Ska.wav" WAVE TRACK 04 AUDIO TITLE "Jungle Ska" PERFORMER "Skarface" INDEX 01 00:00:00FILE "05 - War Is The Air.wav" WAVE TRACK 05 AUDIO TITLE "War Is The Air" PERFORMER "Skarface" INDEX 01 00:00:00FILE "06 - If You Feel Alone.wav" WAVE TRACK 06 AUDIO TITLE "If You Feel Alone" PERFORMER "Skarface" INDEX 01 00:00:00FILE "07 - Oh Darling.wav" WAVE TRACK 07 AUDIO TITLE "Oh Darling" PERFORMER "Skarface" INDEX 01 00:00:00FILE "08 - Pas Pour Nous.wav" WAVE TRACK 08 AUDIO TITLE "Pas Pour Nous" PERFORMER "Skarface" INDEX 01 00:00:00FILE "09 - Voices.wav" WAVE TRACK 09 AUDIO TITLE "Voices" PERFORMER "Skarface" INDEX 01 00:00:00FILE "10 - Oh He.wav" WAVE TRACK 10 AUDIO TITLE "Oh He" PERFORMER "Skarface" INDEX 01 00:00:00FILE "11 - Rude-Boys Invasion.wav" WAVE TRACK 11 AUDIO TITLE "Rude-Boys Invasion" PERFORMER "Skarface" INDEX 01 00:00:00FILE "12 - Pas Concerne.wav" WAVE TRACK 12 AUDIO TITLE "Pas Concerne" PERFORMER "Skarface" INDEX 01 00:00:00FILE "13 - Japanese Utchiyage.wav" WAVE TRACK 13 AUDIO TITLE "Japanese Utchiyage" PERFORMER "Skarface" INDEX 01 00:00:00FILE "14 - Volontaire.wav" WAVE TRACK 14 AUDIO TITLE "Volontaire" PERFORMER "Skarface" INDEX 01 00:00:00FILE "15 - Alone In The Back.wav" WAVE TRACK 15 AUDIO TITLE "Alone In The Back" PERFORMER "Skarface" INDEX 01 00:00:00FILE "16 - On Tour.wav" WAVE TRACK 16 AUDIO TITLE "On Tour" PERFORMER "Skarface" INDEX 01 00:00:00FILE "17 - Young Devils.wav" WAVE TRACK 17 AUDIO TITLE "Young Devils" PERFORMER "Skarface" INDEX 01 00:00:00FILE "18 - Jazz Experiment.wav" WAVE TRACK 18 AUDIO TITLE "Jazz Experiment" PERFORMER "Skarface" INDEX 01 00:00:00FILE "19 - Kids On The Streets.wav" WAVE TRACK 19 AUDIO TITLE "Kids On The Streets" PERFORMER "Skarface" INDEX 01 00:00:00FILE "20 - C'est Fini.wav" WAVE TRACK 20 AUDIO TITLE "C'est Fini" PERFORMER "Skarface" INDEX 01 00:00:00


[islamvillage.com]_t_1726517.torrent
Торрент: Зарегистрирован ·  [ 2017-10-09 18:48 ] ·  0ddef18127bea0f0a21aae1f2561881fdb7f34ec

18 KB

Статус: проверено
Скачан: 0 раз
Размер: 405 MB
Оценка: 
(Голосов: 0)
Сказали спасибо: 0  Спасибо
Похожие темы
[Профиль]    [ЛС]
Показать сообщения:    
Ответить на тему

Текущее время: Сегодня 05:53

Часовой пояс: GMT + 7



Вы не можете начинать темы
Вы не можете отвечать на сообщения
Вы не можете редактировать свои сообщения
Вы не можете удалять свои сообщения
Вы не можете голосовать в опросах
Вы не можете прикреплять файлы к сообщениям
Вы можете скачивать файлы


Alan Tudyk | B.D. Wong | Love Nina