(Modern SkaMusic/Reggae) The Slackers - Discography - 1996 - 2007, FLAC (tracks+.cue), lossless

Ответить на тему
Статистика раздачи [Обновить пиров]
Размер:  4.52 GB   |    Зарегистрирован:  1 год 3 месяца   |    Скачан:  0 раз

Полного источника не было: Никогда

 
   
 
 
 
Автор Сообщение

islamvillage.com

Создавать темы 09-Окт-2017 18:50

[Цитировать]

The Slackers - Discography- -Жанр: SkaMusic/Reggae | Год выхода диска: 1996 - 2007 | Производитель диска: USA | Аудио кодек: FLAC (tracks+.cue) | Битрейт аудио: lossless--

1996 - Better Late Than Never


01. Work Song (5:12)
02. Run Away (3:43)
03. Pedophilia (4:21)
04. Sooner Or Later (3:48)
05. Two Face (4:30)
06. Cuban Cigar (3:21)
07. You Don't Know I (5:13)
08. Tonight (3:28)
09. Sarah (3:34)
10. Treat Me Good (4:24)
11. Prophet (3:23)
12. Our Day Will Come (3:56)
13. Contemplation (5:20)

1997 - Redlight


01. Cooking for Tommy (3:59)
02. Watch This (3:58)
03. Married Girl (3:11)
04. I Still Love You (3:16)
05. Soldier (2:56)
06. Fried Chicken/Mary Mary (3:29)
07. You Must Be Good (3:57)
08. Redlight (4:58)
09. Tin Tin Deo (3:48)
10. She Wants to Be Alone (4:29)
11. Rude and Reckless (4:37)
12. Come Back Baby (4:15)

1998 - The Question


01. Manuel (2:43)
02. Knowing (2:53)
03. Have The Time (3:07)
04. And I Wonder? (3:49)
05. No More Crying (4:33)
06. Feed My Girl (3:39)
07. Mountainside (2:47)
08. The Mummy (3:22)
09. Motor City (4:00)
10. Power (4:27)
11. Keep Him Away (2:41)
12. The Question (3:59)
13. The Question (Version) (4:05)
14. Face In My Crowd (3:14)
15. Do You Know? (3:10)
16. Yes Its True (4:16)
17. Alone Again (3:03)
18. Make Me Smile (4:21)
19. No Love (3:53)

1999 - The Nods - Before There Were Slackers, There Were...


01. Trash (3:21)
02. All I Ever Wanted (3:50)
03. You Don't Know I.... (2:40)
04. Ray-Gun Sally (3:03)
05. Dead Girl (3:36)
06. Gasoline (2:47)
07. Dear Bossman (3:04)
08. Andre (2:59)
09. Sleep Outside (3:37)
10. Bed Bug (3:27)
11. Red Onions (2:36)
12. Rude Boy (4:22)
13. Sister Sister (2:27)
14. Greedy Girl (4:26)
15. Tarantula (2:41)
16. Yuk-Yah (5:37)

2000 - Live At Ernesto's


01. Intro (0:16)
02. Sooner Or Later (4:00)
03. Married Girl (3:15)
04. Do You Know (3:09)
05. Sarah (3:46)
06. Mush One (1:21)
07. I Still Love You (3:16)
08. Soldier (3:00)
09. Keep Him Away (2:47)
10. Work Song (7:00)
11. Feed My Girl (3:44)
12. Face In My Crowd (3:35)
13. You Don't Know I (7:19)
14. Pedophilia (6:24)
15. Runaway (4:12)
16. The Fried Chicken Song/Mary Mary (5:52)

2002 - The Slackers & Friends


01. Come Come (Feat. Cornell Campbell) (3:25)
02. Mash Down Babylon (Feat. The Congos) (4:09)
03. The Party (Feat. Doreen Schaeffer) (3:41)
04. Schooling the Youth (Feat. Glen Adams w/ John Fx) (5:13)
05. Matey Exterminator (Feat. Ari Up) (6:23)
06. Running From Safety (Feat. Chris Murray) (2:48)
07. Grabalicious Man (features Ranking Joe w/ Cornell Campbell) (4:05)
08. Two-Faced Man (Feat. The Congos) (3:06)
09. Thinking of You (Feat. Doreen Schaefer) (3:45)
10. I Am a Rasta Man (Feat. Chris Murray) (2:15)
11. The Power and the Glory (Feat. The Congos) (19:29)

2003 - Close My Eyes


01. Shankbon (3:55)
02. Old Dog (4:58)
03. Axes (3:33)
04. Bin Waitin (3:58)
05. Real War (4:26)
06. Lazy Woman (3:29)
07. Mommy (3:01)
08. Don't Wanna Go (4:03)
09. Who Knows (4:27)
10. Close My Eyes (3:46)
11. I'll Stay Away (3:53)
12. Decon Dub (4:29)

2004 - Upsettin' Ernesto's


01. This is The Nite (3:42)
02. Cupid (3:52)
03. Henderson Swamp (2:37)
04. Mommy (2:57)
05. Cookin' For Tommy (3:56)
06. Schoolin' The Youth (5:19)
07. Cypriano (2:53)
08. Dollar in Teeth (3:53)
09. Africa (4:05)
10. Live Injection (3:08)
11. Drumsong (9:56)
12. Since I Found You (3:40)
13. Hurt So Good (3:29)
14. Nurse (3:34)
15. Dub Two (5:18)
16. Have the Time (3:05)
17. Church of Slack (4:04)
18. Please Decide (2:55)

2005 - An Afternoon In DUB


01. Exploitation Dub (3:34)
02. Propaganda Dub (4:03)
03. Sidney's Dub (4:29)
04. Blues for Allan (1:38)
05. Dub for Schooling (2:19)
06. Uncle Pivo (4:51)
07. You Must Be Good Dub (4:22)
08. Ascension Dub (4:21)
09. Fat Mouse Dub (3:39)
10. Runaway Dub (4:52)
11. Cracker Dub (2:53)
12. The Glide (2:16)
13. Make Me Smile Dub (4:40)
14. Dub for Ira (feat. Congo 'Ashanti' Roy) (4:47)

2005 - Slack in Japan


01. Have the Time (3:31)
02. Watch THis (3:28)
03. Mommy (3:16)
04. Capo (3:17)
05. Propaganda (4:00)
06. Knowing (2:37)
07. I Still Love You (3:14)
08. Married Girl (4:03)
09. Shankbone (5:04)
10. Rude and Reckless (3:19)
11. Walking On (3:27)
12. Pedophelia / Linda Linda (4:36)
13. Old Dog (4:39)
14. Cooking for Tommy (4:13)
15. Work Song (6:41)

2006 - Peculiar


01. 86 the Mayo (4:23)
02. Peculiar (4:08)
03. Propaganda (4:32)
04. Crazy (3:32)
05. Set the Girl Free (2:38)
06. In Walked Capo (3:21)
07. I'd Rather Die Happy (2:59)
08. What Went Wrong (3:56)
09. Keep It Simple (3:06)
10. International War Crimina (3:58)
11. Sauron (3:46)
12. Rider (4:02)
13. I Shall Be Released (4:18)

2007 - The Boss Harmony Sessions


01. Boss Harmony Speaks (0:33)
02. Robots (4:41)
03. Feed My Girl Ska (4:01)
04. Funk Week (3:57)
05. Mama Told Me (4:59)
06. Mind Your Own Business (3:37)
07. El Gato (2:36)
08. Ska Boheme (4:09)
09. Wanted Man (3:04)
10. Yer Still Blue (3:14)
11. Minha Menina (4:10)
12. Lil Joe (3:19)
13. Body Double (4:19)
14. Boss Harmony Says Goodbye (0:30)
--

Ссылки

- -Источник: Torrentc
-

EAC1996 - Better Late Than Never

Exact Audio Copy V0.99 prebeta 4 from 23. January 2008
EAC extraction logfile from 3. May 2009, 10:21
Slackers / Slackers - Better Late Than Never
Used drive : TSSTcorpCD/DVDW SH-W162L Adapter: 0 ID: 1
Read mode : SecureUtilize accurate stream : YesDefeat audio cache : YesMake use of C2 pointers : No
Read offset correction : 6Overread into Lead-In and Lead-Out : NoFill up missing offset samples with silence : YesDelete leading and trailing silent blocks : NoNull samples used in CRC calculations : YesUsed interface : Native Win32 interface for Win NT & 2000Gap handling : Appended to previous track
Used output format : User Defined EncoderSelected bitrate : 768 kBit/sQuality : HighAdd ID3 tag : NoCommand line compressor : C:\Program Files\Exact Audio Copy\FLAC\FLAC.EXEAdditional command line options : -V -8 -T "artist=%a" -T "title=%t" -T "album=%g" -T "date=%y" -T "tracknumber=%n" -T "genre=%m" %s
TOC of the extracted CD
Track | Start | Length | Start sector | End sector --------------------------------------------------------- 1 | 0:00.00 | 5:11.47 | 0 | 23371 2 | 5:11.47 | 3:43.15 | 23372 | 40111 3 | 8:54.62 | 4:20.50 | 40112 | 59661 4 | 13:15.37 | 3:48.10 | 59662 | 76771 5 | 17:03.47 | 4:29.43 | 76772 | 96989 6 | 21:33.15 | 3:21.22 | 96990 | 112086 7 | 24:54.37 | 5:12.68 | 112087 | 135554 8 | 30:07.30 | 3:27.70 | 135555 | 151149 9 | 33:35.25 | 3:34.15 | 151150 | 167214 10 | 37:09.40 | 4:23.50 | 167215 | 186989 11 | 41:33.15 | 3:23.37 | 186990 | 202251 12 | 44:56.52 | 3:55.45 | 202252 | 219921 13 | 48:52.22 | 5:20.25 | 219922 | 243946
Track 1
Filename D:\EAC Rips\Slackers - Slackers - Better Late Than Never [FLAC]\01 Work Song.wav
Pre-gap length 0:00:02.00
Peak level 98.8 % Track quality 100.0 % Test CRC ED6B2937 Copy CRC ED6B2937 Cannot be verified as accurate (confidence 3) [0A20F794], AccurateRip returned [C090C364] Copy OK
Track 2
Filename D:\EAC Rips\Slackers - Slackers - Better Late Than Never [FLAC]\02 Run Away.wav
Peak level 87.1 % Track quality 100.0 % Test CRC 98495E6A Copy CRC 98495E6A Cannot be verified as accurate (confidence 3) [755C7C97], AccurateRip returned [4C18411F] Copy OK
Track 3
Filename D:\EAC Rips\Slackers - Slackers - Better Late Than Never [FLAC]\03 Pedophilia.wav
Pre-gap length 0:00:02.66
Peak level 84.5 % Track quality 99.9 % Test CRC B9D8C3B2 Copy CRC B9D8C3B2 Cannot be verified as accurate (confidence 3) [3CD02E9B], AccurateRip returned [9DEC0C68] Copy OK
Track 4
Filename D:\EAC Rips\Slackers - Slackers - Better Late Than Never [FLAC]\04 Sooner Or Later.wav
Peak level 90.5 % Track quality 99.9 % Test CRC 228F6A7B Copy CRC 228F6A7B Cannot be verified as accurate (confidence 3) [2E14E628], AccurateRip returned [727461FD] Copy OK
Track 5
Filename D:\EAC Rips\Slackers - Slackers - Better Late Than Never [FLAC]\05 Two Face.wav
Pre-gap length 0:00:02.36
Peak level 84.6 % Track quality 100.0 % Test CRC C54DA52C Copy CRC C54DA52C Cannot be verified as accurate (confidence 3) [888D1B89], AccurateRip returned [A10E0D86] Copy OK
Track 6
Filename D:\EAC Rips\Slackers - Slackers - Better Late Than Never [FLAC]\06 Cuban Cigar.wav
Peak level 85.8 % Track quality 100.0 % Test CRC A3453CBD Copy CRC A3453CBD Cannot be verified as accurate (confidence 3) [2A2A0A5D], AccurateRip returned [E2950BC2] Copy OK
Track 7
Filename D:\EAC Rips\Slackers - Slackers - Better Late Than Never [FLAC]\07 You Don't Know I.wav
Pre-gap length 0:00:19.66
Peak level 79.2 % Track quality 100.0 % Test CRC 1529D8B2 Copy CRC 1529D8B2 Cannot be verified as accurate (confidence 3) [71853C3F], AccurateRip returned [FFA27D97] Copy OK
Track 8
Filename D:\EAC Rips\Slackers - Slackers - Better Late Than Never [FLAC]\08 Tonight.wav
Pre-gap length 0:00:02.26
Peak level 70.0 % Track quality 100.0 % Test CRC 2DD33FB8 Copy CRC 2DD33FB8 Cannot be verified as accurate (confidence 3) [CFC04ECE], AccurateRip returned [67ECF2A2] Copy OK
Track 9
Filename D:\EAC Rips\Slackers - Slackers - Better Late Than Never [FLAC]\09 Sarah.wav
Pre-gap length 0:00:01.53
Peak level 80.1 % Track quality 99.9 % Test CRC D8A4741F Copy CRC D8A4741F Cannot be verified as accurate (confidence 3) [967189BE], AccurateRip returned [C012061F] Copy OK
Track 10
Filename D:\EAC Rips\Slackers - Slackers - Better Late Than Never [FLAC]\10 Treat Me Good.wav
Peak level 82.6 % Track quality 99.9 % Test CRC 8B791EE2 Copy CRC 8B791EE2 Cannot be verified as accurate (confidence 3) [C7448C55], AccurateRip returned [DFF6817E] Copy OK
Track 11
Filename D:\EAC Rips\Slackers - Slackers - Better Late Than Never [FLAC]\11 Prophet.wav
Pre-gap length 0:00:01.64
Peak level 91.9 % Track quality 100.0 % Test CRC 31CF7816 Copy CRC 31CF7816 Cannot be verified as accurate (confidence 3) [F264D7CA], AccurateRip returned [6C5B2E51] Copy OK
Track 12
Filename D:\EAC Rips\Slackers - Slackers - Better Late Than Never [FLAC]\12 Our Day Will Come.wav
Peak level 88.9 % Track quality 100.0 % Test CRC E0B9FAEB Copy CRC E0B9FAEB Cannot be verified as accurate (confidence 3) [911E75C8], AccurateRip returned [3B62007F] Copy OK
Track 13
Filename D:\EAC Rips\Slackers - Slackers - Better Late Than Never [FLAC]\13 Contemplation.wav
Pre-gap length 0:00:04.80
Peak level 98.8 % Track quality 100.0 % Test CRC 53C286FA Copy CRC 53C286FA Cannot be verified as accurate (confidence 3) [15FB00EC], AccurateRip returned [28FF2968] Copy OK
No tracks could be verified as accurateYou may have a different pressing from the one(s) in the database
No errors occurred
End of status report

1997 - Redlight

Exact Audio Copy V0.99 prebeta 4 from 23. January 2008
EAC extraction logfile from 29. October 2008, 3:47
The Slackers / Redlight
Used drive : SlimtypeCOMBO SOSC-2483K Adapter: 1 ID: 0
Read mode : SecureUtilize accurate stream : YesDefeat audio cache : YesMake use of C2 pointers : No
Read offset correction : 6Overread into Lead-In and Lead-Out : NoFill up missing offset samples with silence : YesDelete leading and trailing silent blocks : NoNull samples used in CRC calculations : YesUsed interface : Native Win32 interface for Win NT & 2000Gap handling : Appended to previous track
Used output format : User Defined EncoderSelected bitrate : 768 kBit/sQuality : HighAdd ID3 tag : NoCommand line compressor : C:\Program Files\Exact Audio Copy\FLAC\FLAC.EXEAdditional command line options : -6 -V -T "ARTIST=%a" -T "TITLE=%t" -T "ALBUM=%g" -T "DATE=%y" -T "TRACKNUMBER=%n" -T "GENRE=%m" -T "COMMENT=%e" %s -o %d
TOC of the extracted CD
Track | Start | Length | Start sector | End sector --------------------------------------------------------- 1 | 0:00.00 | 3:58.57 | 0 | 17906 2 | 3:58.57 | 3:58.27 | 17907 | 35783 3 | 7:57.09 | 3:11.31 | 35784 | 50139 4 | 11:08.40 | 3:15.52 | 50140 | 64816 5 | 14:24.17 | 2:55.45 | 64817 | 77986 6 | 17:19.62 | 3:28.60 | 77987 | 93646 7 | 20:48.47 | 3:56.47 | 93647 | 111393 8 | 24:45.19 | 4:58.06 | 111394 | 133749 9 | 29:43.25 | 3:47.48 | 133750 | 150822 10 | 33:30.73 | 4:28.70 | 150823 | 170992 11 | 37:59.68 | 4:37.03 | 170993 | 191770 12 | 42:36.71 | 4:15.23 | 191771 | 210918
Track 1
Filename C:\Documents and Settings\Chris Otakas\Desktop\Share\musik\The Slackers {1997} Redlight [flac]\01. The Slackers - Cooking for Tommy.wav
Pre-gap length 0:00:02.00
Peak level 96.6 % Track quality 99.9 % Test CRC 99BB9D64 Copy CRC 99BB9D64 Track not present in AccurateRip database Copy OK
Track 2
Filename C:\Documents and Settings\Chris Otakas\Desktop\Share\musik\The Slackers {1997} Redlight [flac]\02. The Slackers - Watch This.wav
Pre-gap length 0:00:00.04
Peak level 96.6 % Track quality 100.0 % Test CRC 5F191D87 Copy CRC 5F191D87 Track not present in AccurateRip database Copy OK
Track 3
Filename C:\Documents and Settings\Chris Otakas\Desktop\Share\musik\The Slackers {1997} Redlight [flac]\03. The Slackers - Married Girl.wav
Pre-gap length 0:00:00.32
Peak level 91.2 % Track quality 100.0 % Test CRC 7252B156 Copy CRC 7252B156 Track not present in AccurateRip database Copy OK
Track 4
Filename C:\Documents and Settings\Chris Otakas\Desktop\Share\musik\The Slackers {1997} Redlight [flac]\04. The Slackers - I Still Love You.wav
Pre-gap length 0:00:00.01
Peak level 96.6 % Track quality 100.0 % Test CRC 80827BAC Copy CRC 80827BAC Track not present in AccurateRip database Copy OK
Track 5
Filename C:\Documents and Settings\Chris Otakas\Desktop\Share\musik\The Slackers {1997} Redlight [flac]\05. The Slackers - Soldier.wav
Peak level 96.6 % Track quality 100.0 % Test CRC 16AFA3DA Copy CRC 16AFA3DA Track not present in AccurateRip database Copy OK
Track 6
Filename C:\Documents and Settings\Chris Otakas\Desktop\Share\musik\The Slackers {1997} Redlight [flac]\06. The Slackers - Fried Chicken,Mary Mary.wav
Pre-gap length 0:00:00.04
Peak level 96.6 % Track quality 100.0 % Test CRC F864C14E Copy CRC F864C14E Track not present in AccurateRip database Copy OK
Track 7
Filename C:\Documents and Settings\Chris Otakas\Desktop\Share\musik\The Slackers {1997} Redlight [flac]\07. The Slackers - You Must Be Good.wav
Pre-gap length 0:00:02.18
Peak level 96.6 % Track quality 100.0 % Test CRC 30D23789 Copy CRC 30D23789 Track not present in AccurateRip database Copy OK
Track 8
Filename C:\Documents and Settings\Chris Otakas\Desktop\Share\musik\The Slackers {1997} Redlight [flac]\08. The Slackers - Redlight.wav
Peak level 96.6 % Track quality 100.0 % Test CRC FF56B46F Copy CRC FF56B46F Track not present in AccurateRip database Copy OK
Track 9
Filename C:\Documents and Settings\Chris Otakas\Desktop\Share\musik\The Slackers {1997} Redlight [flac]\09. The Slackers - Tin Tin Deo.wav
Pre-gap length 0:00:00.05
Peak level 96.6 % Track quality 100.0 % Test CRC D9DFB0BC Copy CRC D9DFB0BC Track not present in AccurateRip database Copy OK
Track 10
Filename C:\Documents and Settings\Chris Otakas\Desktop\Share\musik\The Slackers {1997} Redlight [flac]\10. The Slackers - She Wants to Be Alone.wav
Pre-gap length 0:00:00.61
Peak level 96.6 % Track quality 100.0 % Test CRC 9ADB8E2D Copy CRC 9ADB8E2D Track not present in AccurateRip database Copy OK
Track 11
Filename C:\Documents and Settings\Chris Otakas\Desktop\Share\musik\The Slackers {1997} Redlight [flac]\11. The Slackers - Rude and Reckless.wav
Pre-gap length 0:00:00.05
Peak level 96.6 % Track quality 100.0 % Test CRC 9769459F Copy CRC 9769459F Track not present in AccurateRip database Copy OK
Track 12
Filename C:\Documents and Settings\Chris Otakas\Desktop\Share\musik\The Slackers {1997} Redlight [flac]\12. The Slackers - Come Back Baby.wav
Pre-gap length 0:00:00.51
Peak level 96.5 % Track quality 100.0 % Test CRC E6D4086C Copy CRC E6D4086C Track not present in AccurateRip database Copy OK
None of the tracks are present in the AccurateRip database
No errors occurred
End of status report

1998 - The Question

EAC extraction logfile from 19. May 2007, 17:05 for CDThe Slackers / The Question
Used drive : _NEC DVD_RW ND-3540A Adapter: 0 ID: 0Read mode : Secure with NO C2, accurate stream, disable cacheRead offset correction : 48Overread into Lead-In and Lead-Out : No
Used output format : C:\Program Files\FLAC\flac.exe (User Defined Encoder) 320 kBit/s Additional command line options : -V -8 -T "artist=%a" -T "title=%t" -T "album=%g" -T "date=%y" -T "tracknumber=%n" -T "genre=%m" %s
Other options : Fill up missing offset samples with silence : Yes Delete leading and trailing silent blocks : No Installed external ASPI interface
Track 1 Filename C:\Documents and Settings\david\Desktop\choke\Rips\The Slackers - The Question - 1998 FLAC\01 - The Slackers - Manuel.wav
Pre-gap length 0:00:02.00
Peak level 96.6 % Track quality 100.0 % Test CRC 2ABD678C Copy CRC 2ABD678C Copy OK
Track 2 Filename C:\Documents and Settings\david\Desktop\choke\Rips\The Slackers - The Question - 1998 FLAC\02 - The Slackers - Knowing.wav
Peak level 96.6 % Track quality 100.0 % Test CRC 67F82F74 Copy CRC 67F82F74 Copy OK
Track 3 Filename C:\Documents and Settings\david\Desktop\choke\Rips\The Slackers - The Question - 1998 FLAC\03 - The Slackers - Have The Time.wav
Peak level 96.6 % Track quality 100.0 % Test CRC A3943557 Copy CRC A3943557 Copy OK
Track 4 Filename C:\Documents and Settings\david\Desktop\choke\Rips\The Slackers - The Question - 1998 FLAC\04 - The Slackers - And I Wonder .wav
Peak level 96.6 % Track quality 99.9 % Test CRC 77300F98 Copy CRC 77300F98 Copy OK
Track 5 Filename C:\Documents and Settings\david\Desktop\choke\Rips\The Slackers - The Question - 1998 FLAC\05 - The Slackers - No More Crying.wav
Peak level 96.6 % Track quality 100.0 % Test CRC 2C822E60 Copy CRC 2C822E60 Copy OK
Track 6 Filename C:\Documents and Settings\david\Desktop\choke\Rips\The Slackers - The Question - 1998 FLAC\06 - The Slackers - Feed My Girl.wav
Peak level 96.6 % Track quality 100.0 % Test CRC 4E46BB8E Copy CRC 4E46BB8E Copy OK
Track 7 Filename C:\Documents and Settings\david\Desktop\choke\Rips\The Slackers - The Question - 1998 FLAC\07 - The Slackers - Mountainside.wav
Peak level 96.6 % Track quality 100.0 % Test CRC 804FA643 Copy CRC 804FA643 Copy OK
Track 8 Filename C:\Documents and Settings\david\Desktop\choke\Rips\The Slackers - The Question - 1998 FLAC\08 - The Slackers - The Mummy.wav
Peak level 96.6 % Track quality 100.0 % Test CRC 0693A855 Copy CRC 0693A855 Copy OK
Track 9 Filename C:\Documents and Settings\david\Desktop\choke\Rips\The Slackers - The Question - 1998 FLAC\09 - The Slackers - Motor City.wav
Peak level 96.6 % Track quality 100.0 % Test CRC CBBED87A Copy CRC CBBED87A Copy OK
Track 10 Filename C:\Documents and Settings\david\Desktop\choke\Rips\The Slackers - The Question - 1998 FLAC\10 - The Slackers - Power.wav
Peak level 96.6 % Track quality 100.0 % Test CRC EBEE3587 Copy CRC EBEE3587 Copy OK
Track 11 Filename C:\Documents and Settings\david\Desktop\choke\Rips\The Slackers - The Question - 1998 FLAC\11 - The Slackers - Keep Him Away.wav
Peak level 96.6 % Track quality 99.9 % Test CRC 604CBD18 Copy CRC 604CBD18 Copy OK
Track 12 Filename C:\Documents and Settings\david\Desktop\choke\Rips\The Slackers - The Question - 1998 FLAC\12 - The Slackers - The Question.wav
Peak level 96.6 % Track quality 100.0 % Test CRC 53BE3FB2 Copy CRC 53BE3FB2 Copy OK
Track 13 Filename C:\Documents and Settings\david\Desktop\choke\Rips\The Slackers - The Question - 1998 FLAC\13 - The Slackers - The Question (Version).wav
Peak level 96.6 % Track quality 100.0 % Test CRC 7635B1E9 Copy CRC 7635B1E9 Copy OK
Track 14 Filename C:\Documents and Settings\david\Desktop\choke\Rips\The Slackers - The Question - 1998 FLAC\14 - The Slackers - Face In My Crowd.wav
Peak level 96.6 % Track quality 100.0 % Test CRC 603E6A4A Copy CRC 603E6A4A Copy OK
Track 15 Filename C:\Documents and Settings\david\Desktop\choke\Rips\The Slackers - The Question - 1998 FLAC\15 - The Slackers - Do You Know .wav
Peak level 96.6 % Track quality 99.9 % Test CRC 829870E9 Copy CRC 829870E9 Copy OK
Track 16 Filename C:\Documents and Settings\david\Desktop\choke\Rips\The Slackers - The Question - 1998 FLAC\16 - The Slackers - Yes Its True.wav
Peak level 96.6 % Track quality 100.0 % Test CRC 29E8AE70 Copy CRC 29E8AE70 Copy OK
Track 17 Filename C:\Documents and Settings\david\Desktop\choke\Rips\The Slackers - The Question - 1998 FLAC\17 - The Slackers - Alone Again.wav
Peak level 96.6 % Track quality 100.0 % Test CRC D20CC66B Copy CRC D20CC66B Copy OK
Track 18 Filename C:\Documents and Settings\david\Desktop\choke\Rips\The Slackers - The Question - 1998 FLAC\18 - The Slackers - Make Me Smile.wav
Peak level 96.6 % Track quality 100.0 % Test CRC EF8254D3 Copy CRC EF8254D3 Copy OK
Track 19 Filename C:\Documents and Settings\david\Desktop\choke\Rips\The Slackers - The Question - 1998 FLAC\19 - The Slackers - No Love.wav
Peak level 96.6 % Track quality 99.9 % Test CRC 6C49DD3B Copy CRC 6C49DD3B Copy OK
No errors occured
End of status report

1999 - The Nods - Before There Were Slackers, There Were...

Exact Audio Copy V0.99 prebeta 3 from 28. July 2007
EAC extraction logfile from 1. July 2008, 11:28
Nods / Before There Were Slackers, There Were...
Used drive : HL-DT-STDVD-RW GWA-4082N Adapter: 1 ID: 0
Read mode : SecureUtilize accurate stream : YesDefeat audio cache : YesMake use of C2 pointers : No
Read offset correction : 667Overread into Lead-In and Lead-Out : NoFill up missing offset samples with silence : YesDelete leading and trailing silent blocks : NoNull samples used in CRC calculations : YesUsed interface : Installed external ASPI interfaceGap handling : Appended to previous track
Used output format : User Defined EncoderSelected bitrate : 192 kBit/sQuality : HighAdd ID3 tag : NoCommand line compressor : C:\Program Files\Exact Audio Copy\flac.exeAdditional command line options : -8 -A tukey(0.25) -A gauss(0.1875) -b 4096 -V -T "artist=%a" -T "title=%t" -T "album=%g" -T "date=%y" -T "tracknumber=%n" -T "genre=%m" %s --sector-align
TOC of the extracted CD
Track | Start | Length | Start sector | End sector --------------------------------------------------------- 1 | 0:00.00 | 3:20.48 | 0 | 15047 2 | 3:20.48 | 3:50.28 | 15048 | 32325 3 | 7:11.01 | 2:39.44 | 32326 | 44294 4 | 9:50.45 | 3:02.59 | 44295 | 58003 5 | 12:53.29 | 3:36.31 | 58004 | 74234 6 | 16:29.60 | 2:47.25 | 74235 | 86784 7 | 19:17.10 | 3:03.42 | 86785 | 100551 8 | 22:20.52 | 2:58.54 | 100552 | 113955 9 | 25:19.31 | 3:36.48 | 113956 | 130203 10 | 28:56.04 | 3:26.65 | 130204 | 145718 11 | 32:22.69 | 2:36.06 | 145719 | 157424 12 | 34:59.00 | 4:22.31 | 157425 | 177105 13 | 39:21.31 | 2:26.62 | 177106 | 188117 14 | 41:48.18 | 4:26.32 | 188118 | 208099 15 | 46:14.50 | 2:41.01 | 208100 | 220175 16 | 48:55.51 | 5:36.46 | 220176 | 245421
Track 1
Filename C:\Nods - 1999 - Before There Were Slackers, There Were\01 - Trash.wav
Pre-gap length 0:00:02.00
Peak level 96.6 % Track quality 100.0 % Test CRC F0DF17D0 Copy CRC F0DF17D0 Track not present in AccurateRip database Copy OK
Track 2
Filename C:\Nods - 1999 - Before There Were Slackers, There Were\02 - All I Ever Wanted.wav
Peak level 96.6 % Track quality 100.0 % Test CRC 80408525 Copy CRC 80408525 Track not present in AccurateRip database Copy OK
Track 3
Filename C:\Nods - 1999 - Before There Were Slackers, There Were\03 - You Don't Know I.....wav
Peak level 96.6 % Track quality 100.0 % Test CRC CA90FA9E Copy CRC CA90FA9E Track not present in AccurateRip database Copy OK
Track 4
Filename C:\Nods - 1999 - Before There Were Slackers, There Were\04 - Ray-Gun Sally.wav
Peak level 96.6 % Track quality 100.0 % Test CRC 773A7D1C Copy CRC 773A7D1C Track not present in AccurateRip database Copy OK
Track 5
Filename C:\Nods - 1999 - Before There Were Slackers, There Were\05 - Dead Girl.wav
Peak level 96.6 % Track quality 100.0 % Test CRC E1EBDE34 Copy CRC E1EBDE34 Track not present in AccurateRip database Copy OK
Track 6
Filename C:\Nods - 1999 - Before There Were Slackers, There Were\06 - Gasoline.wav
Peak level 96.6 % Track quality 100.0 % Test CRC DD1B817C Copy CRC DD1B817C Track not present in AccurateRip database Copy OK
Track 7
Filename C:\Nods - 1999 - Before There Were Slackers, There Were\07 - Dear Bossman.wav
Peak level 96.6 % Track quality 100.0 % Test CRC 751DD314 Copy CRC 751DD314 Track not present in AccurateRip database Copy OK
Track 8
Filename C:\Nods - 1999 - Before There Were Slackers, There Were\08 - Andre.wav
Peak level 96.6 % Track quality 100.0 % Test CRC 2529EE63 Copy CRC 2529EE63 Track not present in AccurateRip database Copy OK
Track 9
Filename C:\Nods - 1999 - Before There Were Slackers, There Were\09 - Sleep Outside.wav
Peak level 96.6 % Track quality 100.0 % Test CRC A73316DD Copy CRC A73316DD Track not present in AccurateRip database Copy OK
Track 10
Filename C:\Nods - 1999 - Before There Were Slackers, There Were\10 - Bed Bug.wav
Peak level 96.6 % Track quality 99.9 % Test CRC 644C9594 Copy CRC 644C9594 Track not present in AccurateRip database Copy OK
Track 11
Filename C:\Nods - 1999 - Before There Were Slackers, There Were\11 - Red Onions.wav
Peak level 96.6 % Track quality 99.9 % Test CRC 7A3ADBA8 Copy CRC 7A3ADBA8 Track not present in AccurateRip database Copy OK
Track 12
Filename C:\Nods - 1999 - Before There Were Slackers, There Were\12 - Rude Boy.wav
Peak level 96.6 % Track quality 100.0 % Test CRC 204873C9 Copy CRC 204873C9 Track not present in AccurateRip database Copy OK
Track 13
Filename C:\Nods - 1999 - Before There Were Slackers, There Were\13 - Sister Sister.wav
Peak level 96.6 % Track quality 100.0 % Test CRC A9A19BB7 Copy CRC A9A19BB7 Track not present in AccurateRip database Copy OK
Track 14
Filename C:\Nods - 1999 - Before There Were Slackers, There Were\14 - Greedy Girl.wav
Peak level 96.6 % Track quality 100.0 % Test CRC 68FE3508 Copy CRC 68FE3508 Track not present in AccurateRip database Copy OK
Track 15
Filename C:\Nods - 1999 - Before There Were Slackers, There Were\15 - Tarantula.wav
Peak level 96.6 % Track quality 99.9 % Test CRC 500FA5DE Copy CRC 500FA5DE Track not present in AccurateRip database Copy OK
Track 16
Filename C:\Nods - 1999 - Before There Were Slackers, There Were\16 - Yuk-Yah.wav
Peak level 96.6 % Track quality 100.0 % Test CRC 981C96D8 Copy CRC 981C96D8 Track not present in AccurateRip database Copy OK
None of the tracks are present in the AccurateRip database
No errors occurred
End of status report

2000 - Live At Ernesto's

Exact Audio Copy V0.99 prebeta 4 from 23. January 2008
EAC extraction logfile from 28. April 2009, 19:30
The Slackers / Live At Ernesto's
Used drive : _NEC DVD_RW ND-1300A Adapter: 1 ID: 0
Read mode : SecureUtilize accurate stream : YesDefeat audio cache : YesMake use of C2 pointers : No
Read offset correction : 48Overread into Lead-In and Lead-Out : NoFill up missing offset samples with silence : YesDelete leading and trailing silent blocks : NoNull samples used in CRC calculations : YesUsed interface : Native Win32 interface for Win NT & 2000Gap handling : Appended to previous track
Used output format : User Defined EncoderSelected bitrate : 768 kBit/sQuality : HighAdd ID3 tag : NoCommand line compressor : C:\Programfiler\FLAC\flac.exeAdditional command line options : -V -8 -T "artist=%a" -T "title=%t" -T "album=%g" -T "date=%y" -T "tracknumber=%n" -T "genre=%m" %s
TOC of the extracted CD
Track | Start | Length | Start sector | End sector --------------------------------------------------------- 1 | 0:00.00 | 0:16.28 | 0 | 1227 2 | 0:16.28 | 4:00.23 | 1228 | 19250 3 | 4:16.51 | 3:15.02 | 19251 | 33877 4 | 7:31.53 | 3:08.44 | 33878 | 48021 5 | 10:40.22 | 3:46.27 | 48022 | 64998 6 | 14:26.49 | 1:21.21 | 64999 | 71094 7 | 15:47.70 | 3:16.14 | 71095 | 85808 8 | 19:04.09 | 2:59.61 | 85809 | 99294 9 | 22:03.70 | 2:47.07 | 99295 | 111826 10 | 24:51.02 | 7:00.37 | 111827 | 143363 11 | 31:51.39 | 3:43.55 | 143364 | 160143 12 | 35:35.19 | 3:35.02 | 160144 | 176270 13 | 39:10.21 | 7:18.41 | 176271 | 209161 14 | 46:28.62 | 6:23.59 | 209162 | 237945 15 | 52:52.46 | 4:12.17 | 237946 | 256862 16 | 57:04.63 | 5:51.60 | 256863 | 283247
Track 1
Filename C:\EAC rips\The Slackers - 2000 - Live At Ernesto's\01 - Intro.wav
Pre-gap length 0:00:02.00
Peak level 96.6 % Track quality 100.0 % Test CRC 3FC35553 Copy CRC 3FC35553 Cannot be verified as accurate (confidence 3) [58115B3B], AccurateRip returned [E48E9520] Copy OK
Track 2
Filename C:\EAC rips\The Slackers - 2000 - Live At Ernesto's\02 - Sooner Or Later.wav
Peak level 96.6 % Track quality 100.0 % Test CRC 1BC06787 Copy CRC 1BC06787 Cannot be verified as accurate (confidence 3) [32C01588], AccurateRip returned [780D24EC] Copy OK
Track 3
Filename C:\EAC rips\The Slackers - 2000 - Live At Ernesto's\03 - Married Girl.wav
Peak level 96.6 % Track quality 100.0 % Test CRC FDD16A00 Copy CRC FDD16A00 Cannot be verified as accurate (confidence 3) [1241916B], AccurateRip returned [F4965B04] Copy OK
Track 4
Filename C:\EAC rips\The Slackers - 2000 - Live At Ernesto's\04 - Do You Know.wav
Peak level 96.6 % Track quality 100.0 % Test CRC 331FFB13 Copy CRC 331FFB13 Cannot be verified as accurate (confidence 3) [9CA75E61], AccurateRip returned [00225755] Copy OK
Track 5
Filename C:\EAC rips\The Slackers - 2000 - Live At Ernesto's\05 - Sarah.wav
Peak level 96.6 % Track quality 100.0 % Test CRC C5E72CFA Copy CRC C5E72CFA Cannot be verified as accurate (confidence 3) [41C297C4], AccurateRip returned [62C2BBF1] Copy OK
Track 6
Filename C:\EAC rips\The Slackers - 2000 - Live At Ernesto's\06 - Mush One.wav
Peak level 96.6 % Track quality 100.0 % Test CRC 6EAB1ECF Copy CRC 6EAB1ECF Cannot be verified as accurate (confidence 3) [20F9F98A], AccurateRip returned [961C8127] Copy OK
Track 7
Filename C:\EAC rips\The Slackers - 2000 - Live At Ernesto's\07 - I Still Love You.wav
Peak level 96.6 % Track quality 100.0 % Test CRC 885149A6 Copy CRC 885149A6 Cannot be verified as accurate (confidence 3) [329AF31D], AccurateRip returned [62E35D46] Copy OK
Track 8
Filename C:\EAC rips\The Slackers - 2000 - Live At Ernesto's\08 - Soldier.wav
Peak level 96.6 % Track quality 100.0 % Test CRC CF4D56CA Copy CRC CF4D56CA Cannot be verified as accurate (confidence 3) [D9EA87C1], AccurateRip returned [34766CC6] Copy OK
Track 9
Filename C:\EAC rips\The Slackers - 2000 - Live At Ernesto's\09 - Keep Him Away.wav
Peak level 96.6 % Track quality 100.0 % Test CRC E20A1E2E Copy CRC E20A1E2E Cannot be verified as accurate (confidence 3) [B5487288], AccurateRip returned [018423BB] Copy OK
Track 10
Filename C:\EAC rips\The Slackers - 2000 - Live At Ernesto's\10 - Work Song.wav
Peak level 96.6 % Track quality 100.0 % Test CRC A4F8163C Copy CRC A4F8163C Cannot be verified as accurate (confidence 3) [A1B9C2E3], AccurateRip returned [1AD4F604] Copy OK
Track 11
Filename C:\EAC rips\The Slackers - 2000 - Live At Ernesto's\11 - Feed My Girl.wav
Peak level 96.6 % Track quality 100.0 % Test CRC 44F7C08E Copy CRC 44F7C08E Cannot be verified as accurate (confidence 3) [286C2531], AccurateRip returned [0937A8B1] Copy OK
Track 12
Filename C:\EAC rips\The Slackers - 2000 - Live At Ernesto's\12 - Face In My Crowd.wav
Peak level 96.6 % Track quality 99.8 % Test CRC B5D91673 Copy CRC B5D91673 Cannot be verified as accurate (confidence 3) [D3DC9FB2], AccurateRip returned [D55F24EA] Copy OK
Track 13
Filename C:\EAC rips\The Slackers - 2000 - Live At Ernesto's\13 - You Don't Know I.wav
Peak level 96.6 % Track quality 99.9 % Test CRC 1541362E Copy CRC 1541362E Cannot be verified as accurate (confidence 3) [0EA8279F], AccurateRip returned [D1C4627F] Copy OK
Track 14
Filename C:\EAC rips\The Slackers - 2000 - Live At Ernesto's\14 - Pedophilia.wav
Peak level 96.6 % Track quality 100.0 % Test CRC 6F4030FC Copy CRC 6F4030FC Cannot be verified as accurate (confidence 3) [2C4828B1], AccurateRip returned [200D14CD] Copy OK
Track 15
Filename C:\EAC rips\The Slackers - 2000 - Live At Ernesto's\15 - Runaway.wav
Pre-gap length 0:01:22.00
Peak level 96.6 % Track quality 100.0 % Test CRC 5CD9439D Copy CRC 5CD9439D Cannot be verified as accurate (confidence 3) [06C5FD77], AccurateRip returned [5463C793] Copy OK
Track 16
Filename C:\EAC rips\The Slackers - 2000 - Live At Ernesto's\16 - The Fried Chicken Song,Mary Mary.wav
Peak level 96.6 % Track quality 100.0 % Test CRC 680CB011 Copy CRC 680CB011 Cannot be verified as accurate (confidence 3) [3DD922CA], AccurateRip returned [C817A78C] Copy OK
No tracks could be verified as accurateYou may have a different pressing from the one(s) in the database
No errors occurred
End of status report

2002 - The Slackers & Friends

Exact Audio Copy V0.99 prebeta 4 from 23. January 2008
EAC extraction logfile from 17. May 2009, 23:57
The Slackers & Friends / The Slackers & Friends
Used drive : JLMS XJ-HD166S Adapter: 1 ID: 1
Read mode : SecureUtilize accurate stream : YesDefeat audio cache : YesMake use of C2 pointers : No
Read offset correction : 12Overread into Lead-In and Lead-Out : NoFill up missing offset samples with silence : YesDelete leading and trailing silent blocks : NoNull samples used in CRC calculations : YesUsed interface : Native Win32 interface for Win NT & 2000Gap handling : Appended to previous track
Used output format : User Defined EncoderSelected bitrate : 768 kBit/sQuality : HighAdd ID3 tag : NoCommand line compressor : C:\Program Files\Exact Audio Copy\FLAC\FLAC.EXEAdditional command line options : -6 -V -T "ARTIST=%a" -T "TITLE=%t" -T "ALBUM=%g" -T "DATE=%y" -T "TRACKNUMBER=%n" -T "GENRE=%m" -T "COMMENT=%e" %s -o %d
TOC of the extracted CD
Track | Start | Length | Start sector | End sector --------------------------------------------------------- 1 | 0:00.00 | 3:25.20 | 0 | 15394 2 | 3:25.20 | 4:09.10 | 15395 | 34079 3 | 7:34.30 | 3:40.74 | 34080 | 50653 4 | 11:15.29 | 5:12.38 | 50654 | 74091 5 | 16:27.67 | 6:23.27 | 74092 | 102843 6 | 22:51.19 | 2:47.58 | 102844 | 115426 7 | 25:39.02 | 4:05.36 | 115427 | 133837 8 | 29:44.38 | 3:06.09 | 133838 | 147796 9 | 32:50.47 | 3:45.26 | 147797 | 164697 10 | 36:35.73 | 2:14.38 | 164698 | 174785 11 | 38:50.36 | 19:28.72 | 174786 | 262457
Track 1
Filename C:\_new\_____to upload\The Slackers & Friends {2002} The Slackers & Friends [flac]\01 - Come Come (Feat. Cornell Campbell).wav
Pre-gap length 0:00:02.00
Peak level 97.0 % Track quality 100.0 % Test CRC 0E5D6260 Copy CRC 0E5D6260 Track not present in AccurateRip database Copy OK
Track 2
Filename C:\_new\_____to upload\The Slackers & Friends {2002} The Slackers & Friends [flac]\02 - Mash Down Babylon (Feat. The Congos).wav
Pre-gap length 0:00:03.58
Peak level 97.6 % Track quality 100.0 % Test CRC D6D6D7CF Copy CRC D6D6D7CF Track not present in AccurateRip database Copy OK
Track 3
Filename C:\_new\_____to upload\The Slackers & Friends {2002} The Slackers & Friends [flac]\03 - The Party (Feat. Doreen Schaeffer).wav
Pre-gap length 0:00:03.55
Peak level 97.9 % Track quality 100.0 % Test CRC C7761815 Copy CRC C7761815 Track not present in AccurateRip database Copy OK
Track 4
Filename C:\_new\_____to upload\The Slackers & Friends {2002} The Slackers & Friends [flac]\04 - Schooling the Youth (Feat. Glen Adams w, John Fx).wav
Pre-gap length 0:00:03.54
Peak level 98.5 % Track quality 100.0 % Test CRC CAE23ED3 Copy CRC CAE23ED3 Track not present in AccurateRip database Copy OK
Track 5
Filename C:\_new\_____to upload\The Slackers & Friends {2002} The Slackers & Friends [flac]\05 - Matey Exterminator (Feat. Ari Up).wav
Pre-gap length 0:00:03.54
Peak level 97.5 % Track quality 100.0 % Test CRC BF37EF05 Copy CRC BF37EF05 Track not present in AccurateRip database Copy OK
Track 6
Filename C:\_new\_____to upload\The Slackers & Friends {2002} The Slackers & Friends [flac]\06 - Running From Safety (Feat. Chris Murray).wav
Pre-gap length 0:00:03.59
Peak level 98.8 % Track quality 100.0 % Test CRC 7FC6DE5C Copy CRC 7FC6DE5C Track not present in AccurateRip database Copy OK
Track 7
Filename C:\_new\_____to upload\The Slackers & Friends {2002} The Slackers & Friends [flac]\07 - Grabalicious Man (features Ranking Joe w, Cornell Campbell).wav
Pre-gap length 0:00:03.57
Peak level 97.8 % Track quality 100.0 % Test CRC 8E726CF4 Copy CRC 8E726CF4 Track not present in AccurateRip database Copy OK
Track 8
Filename C:\_new\_____to upload\The Slackers & Friends {2002} The Slackers & Friends [flac]\08 - Two-Faced Man (Feat. The Congos).wav
Pre-gap length 0:00:03.59
Peak level 96.5 % Track quality 100.0 % Test CRC B2B2FC3E Copy CRC B2B2FC3E Track not present in AccurateRip database Copy OK
Track 9
Filename C:\_new\_____to upload\The Slackers & Friends {2002} The Slackers & Friends [flac]\09 - Thinking of You (Feat. Doreen Schaefer).wav
Pre-gap length 0:00:03.51
Peak level 97.8 % Track quality 100.0 % Test CRC AA65AF60 Copy CRC AA65AF60 Track not present in AccurateRip database Copy OK
Track 10
Filename C:\_new\_____to upload\The Slackers & Friends {2002} The Slackers & Friends [flac]\10 - I Am a Rasta Man (Feat. Chris Murray).wav
Pre-gap length 0:00:03.55
Peak level 97.5 % Track quality 100.0 % Test CRC 77DABD1E Copy CRC 77DABD1E Track not present in AccurateRip database Copy OK
Track 11
Filename C:\_new\_____to upload\The Slackers & Friends {2002} The Slackers & Friends [flac]\11 - The Power and the Glory (Feat. The Congos).wav
Pre-gap length 0:00:03.53
Peak level 98.3 % Track quality 100.0 % Test CRC 017DAAE7 Copy CRC 017DAAE7 Track not present in AccurateRip database Copy OK
None of the tracks are present in the AccurateRip database
No errors occurred
End of status report

2003 - Close My Eyes

Exact Audio Copy V0.99 prebeta 4 from 23. January 2008
EAC extraction logfile from 7. May 2009, 23:35
The Slackers / Close My Eyes
Used drive : JLMS XJ-HD166S Adapter: 1 ID: 1
Read mode : SecureUtilize accurate stream : YesDefeat audio cache : YesMake use of C2 pointers : No
Read offset correction : 12Overread into Lead-In and Lead-Out : NoFill up missing offset samples with silence : YesDelete leading and trailing silent blocks : NoNull samples used in CRC calculations : YesUsed interface : Native Win32 interface for Win NT & 2000Gap handling : Appended to previous track
Used output format : User Defined EncoderSelected bitrate : 768 kBit/sQuality : HighAdd ID3 tag : NoCommand line compressor : C:\Program Files\Exact Audio Copy\FLAC\FLAC.EXEAdditional command line options : -6 -V -T "ARTIST=%a" -T "TITLE=%t" -T "ALBUM=%g" -T "DATE=%y" -T "TRACKNUMBER=%n" -T "GENRE=%m" -T "COMMENT=%e" %s -o %d
TOC of the extracted CD
Track | Start | Length | Start sector | End sector --------------------------------------------------------- 1 | 0:00.00 | 3:54.45 | 0 | 17594 2 | 3:54.45 | 4:57.66 | 17595 | 39935 3 | 8:52.36 | 3:33.12 | 39936 | 55922 4 | 12:25.48 | 3:57.47 | 55923 | 73744 5 | 16:23.20 | 4:26.24 | 73745 | 93718 6 | 20:49.44 | 3:28.40 | 93719 | 109358 7 | 24:18.09 | 3:01.02 | 109359 | 122935 8 | 27:19.11 | 4:03.26 | 122936 | 141186 9 | 31:22.37 | 4:26.42 | 141187 | 161178 10 | 35:49.04 | 3:45.60 | 161179 | 178113 11 | 39:34.64 | 3:52.54 | 178114 | 195567 12 | 43:27.43 | 4:28.67 | 195568 | 215734
Track 1
Filename C:\_new\_____to upload\The Slackers {2003} Close My Eyes [flac]\01 - Shankbцn.wav
Pre-gap length 0:00:02.00
Peak level 99.1 % Track quality 100.0 % Test CRC CCEF61B7 Copy CRC CCEF61B7 Accurately ripped (confidence 4) [6EFC3F9E] Copy OK
Track 2
Filename C:\_new\_____to upload\The Slackers {2003} Close My Eyes [flac]\02 - Old Dog.wav
Peak level 99.1 % Track quality 99.9 % Test CRC CD9FF8F4 Copy CRC CD9FF8F4 Accurately ripped (confidence 4) [A9B69BF3] Copy OK
Track 3
Filename C:\_new\_____to upload\The Slackers {2003} Close My Eyes [flac]\03 - Axes.wav
Pre-gap length 0:00:00.01
Peak level 99.1 % Track quality 99.9 % Test CRC 64367C03 Copy CRC 64367C03 Accurately ripped (confidence 4) [082924BC] Copy OK
Track 4
Filename C:\_new\_____to upload\The Slackers {2003} Close My Eyes [flac]\04 - Bin Waitin.wav
Peak level 99.1 % Track quality 100.0 % Test CRC FFDA4D9D Copy CRC FFDA4D9D Accurately ripped (confidence 4) [9E7F8166] Copy OK
Track 5
Filename C:\_new\_____to upload\The Slackers {2003} Close My Eyes [flac]\05 - Real War.wav
Peak level 99.1 % Track quality 99.9 % Test CRC EA668ED7 Copy CRC EA668ED7 Accurately ripped (confidence 4) [3BD7C818] Copy OK
Track 6
Filename C:\_new\_____to upload\The Slackers {2003} Close My Eyes [flac]\06 - Lazy Woman.wav
Peak level 99.1 % Track quality 99.9 % Test CRC 4FCD7AEB Copy CRC 4FCD7AEB Accurately ripped (confidence 4) [A33516F9] Copy OK
Track 7
Filename C:\_new\_____to upload\The Slackers {2003} Close My Eyes [flac]\07 - Mommy.wav
Peak level 99.1 % Track quality 100.0 % Test CRC B679BA3E Copy CRC B679BA3E Accurately ripped (confidence 4) [B0B0F529] Copy OK
Track 8
Filename C:\_new\_____to upload\The Slackers {2003} Close My Eyes [flac]\08 - Don't Wanna Go.wav
Peak level 99.1 % Track quality 100.0 % Test CRC 3807D068 Copy CRC 3807D068 Accurately ripped (confidence 4) [0AC825A1] Copy OK
Track 9
Filename C:\_new\_____to upload\The Slackers {2003} Close My Eyes [flac]\09 - Who Knows.wav
Peak level 99.1 % Track quality 100.0 % Test CRC 765DAB37 Copy CRC 765DAB37 Accurately ripped (confidence 4) [8FB58374] Copy OK
Track 10
Filename C:\_new\_____to upload\The Slackers {2003} Close My Eyes [flac]\10 - Close My Eyes.wav
Peak level 99.1 % Track quality 99.9 % Test CRC 78DB2196 Copy CRC 78DB2196 Accurately ripped (confidence 4) [FB99F763] Copy OK
Track 11
Filename C:\_new\_____to upload\The Slackers {2003} Close My Eyes [flac]\11 - I'll Stay Away.wav
Peak level 99.1 % Track quality 100.0 % Test CRC 13270BD2 Copy CRC 13270BD2 Accurately ripped (confidence 4) [34FCE315] Copy OK
Track 12
Filename C:\_new\_____to upload\The Slackers {2003} Close My Eyes [flac]\12 - Decon Dub.wav
Peak level 99.1 % Track quality 100.0 % Test CRC 74B8D054 Copy CRC 74B8D054 Accurately ripped (confidence 3) [6777FB6B] Copy OK
All tracks accurately ripped
No errors occurred
End of status report

2004 - Upsettin' Ernesto

Exact Audio Copy V0.99 prebeta 4 from 23. January 2008
EAC extraction logfile from 17. May 2009, 22:57
The Slackers & Friends / Upsettin' Ernesto's
Used drive : JLMS XJ-HD166S Adapter: 1 ID: 1
Read mode : SecureUtilize accurate stream : YesDefeat audio cache : YesMake use of C2 pointers : No
Read offset correction : 12Overread into Lead-In and Lead-Out : NoFill up missing offset samples with silence : YesDelete leading and trailing silent blocks : NoNull samples used in CRC calculations : YesUsed interface : Native Win32 interface for Win NT & 2000Gap handling : Appended to previous track
Used output format : User Defined EncoderSelected bitrate : 768 kBit/sQuality : HighAdd ID3 tag : NoCommand line compressor : C:\Program Files\Exact Audio Copy\FLAC\FLAC.EXEAdditional command line options : -6 -V -T "ARTIST=%a" -T "TITLE=%t" -T "ALBUM=%g" -T "DATE=%y" -T "TRACKNUMBER=%n" -T "GENRE=%m" -T "COMMENT=%e" %s -o %d
TOC of the extracted CD
Track | Start | Length | Start sector | End sector --------------------------------------------------------- 1 | 0:00.00 | 3:41.73 | 0 | 16647 2 | 3:41.73 | 3:51.56 | 16648 | 34028 3 | 7:33.54 | 2:36.69 | 34029 | 45797 4 | 10:10.48 | 2:56.70 | 45798 | 59067 5 | 13:07.43 | 3:56.16 | 59068 | 76783 6 | 17:03.59 | 5:19.07 | 76784 | 100715 7 | 22:22.66 | 2:52.57 | 100716 | 113672 8 | 25:15.48 | 3:52.53 | 113673 | 131125 9 | 29:08.26 | 4:04.61 | 131126 | 149486 10 | 33:13.12 | 3:07.53 | 149487 | 163564 11 | 36:20.65 | 9:55.73 | 163565 | 208262 12 | 46:16.63 | 3:39.43 | 208263 | 224730 13 | 49:56.31 | 3:29.11 | 224731 | 240416 14 | 53:25.42 | 3:33.71 | 240417 | 256462 15 | 56:59.38 | 5:17.49 | 256463 | 280286 16 | 62:17.12 | 3:04.66 | 280287 | 294152 17 | 65:22.03 | 4:04.06 | 294153 | 312458 18 | 69:26.09 | 2:55.18 | 312459 | 325601
Track 1
Filename C:\_new\_____to upload\The Slackers {2004} Upsettin' Ernesto [flac]\01 - This is The Nite.wav
Pre-gap length 0:00:02.00
Peak level 100.0 % Track quality 100.0 % Test CRC A75DE971 Copy CRC A75DE971 Track not present in AccurateRip database Copy OK
Track 2
Filename C:\_new\_____to upload\The Slackers {2004} Upsettin' Ernesto [flac]\02 - Cupid.wav
Peak level 100.0 % Track quality 99.9 % Test CRC 37F61AAC Copy CRC 37F61AAC Track not present in AccurateRip database Copy OK
Track 3
Filename C:\_new\_____to upload\The Slackers {2004} Upsettin' Ernesto [flac]\03 - Henderson Swamp.wav
Peak level 100.0 % Track quality 100.0 % Test CRC 4E08253B Copy CRC 4E08253B Track not present in AccurateRip database Copy OK
Track 4
Filename C:\_new\_____to upload\The Slackers {2004} Upsettin' Ernesto [flac]\04 - Mommy.wav
Peak level 95.5 % Track quality 100.0 % Test CRC 509905B3 Copy CRC 509905B3 Track not present in AccurateRip database Copy OK
Track 5
Filename C:\_new\_____to upload\The Slackers {2004} Upsettin' Ernesto [flac]\05 - Cookin' For Tommy.wav
Peak level 98.8 % Track quality 100.0 % Test CRC D81CB456 Copy CRC D81CB456 Track not present in AccurateRip database Copy OK
Track 6
Filename C:\_new\_____to upload\The Slackers {2004} Upsettin' Ernesto [flac]\06 - Schoolin' The Youth.wav
Peak level 94.4 % Track quality 99.9 % Test CRC 88F56A31 Copy CRC 88F56A31 Track not present in AccurateRip database Copy OK
Track 7
Filename C:\_new\_____to upload\The Slackers {2004} Upsettin' Ernesto [flac]\07 - Cypriano.wav
Peak level 98.6 % Track quality 100.0 % Test CRC 795676F8 Copy CRC 795676F8 Track not present in AccurateRip database Copy OK
Track 8
Filename C:\_new\_____to upload\The Slackers {2004} Upsettin' Ernesto [flac]\08 - Dollar in Teeth.wav
Peak level 97.0 % Track quality 100.0 % Test CRC 68072F20 Copy CRC 68072F20 Track not present in AccurateRip database Copy OK
Track 9
Filename C:\_new\_____to upload\The Slackers {2004} Upsettin' Ernesto [flac]\09 - Africa.wav
Peak level 98.8 % Track quality 100.0 % Test CRC 879FC355 Copy CRC 879FC355 Track not present in AccurateRip database Copy OK
Track 10
Filename C:\_new\_____to upload\The Slackers {2004} Upsettin' Ernesto [flac]\10 - Live Injection.wav
Pre-gap length 0:00:00.02
Peak level 100.0 % Track quality 100.0 % Test CRC D92B3D06 Copy CRC D92B3D06 Track not present in AccurateRip database Copy OK
Track 11
Filename C:\_new\_____to upload\The Slackers {2004} Upsettin' Ernesto [flac]\11 - Drumsong.wav
Peak level 96.6 % Track quality 100.0 % Test CRC E9A3F76B Copy CRC E9A3F76B Track not present in AccurateRip database Copy OK
Track 12
Filename C:\_new\_____to upload\The Slackers {2004} Upsettin' Ernesto [flac]\12 - Since I Found You.wav
Peak level 100.0 % Track quality 100.0 % Test CRC 263FE7B5 Copy CRC 263FE7B5 Track not present in AccurateRip database Copy OK
Track 13
Filename C:\_new\_____to upload\The Slackers {2004} Upsettin' Ernesto [flac]\13 - Hurt So Good.wav
Peak level 98.8 % Track quality 100.0 % Test CRC 69E09E97 Copy CRC 69E09E97 Track not present in AccurateRip database Copy OK
Track 14
Filename C:\_new\_____to upload\The Slackers {2004} Upsettin' Ernesto [flac]\14 - Nurse.wav
Peak level 99.9 % Track quality 100.0 % Test CRC 2CA5DC58 Copy CRC 2CA5DC58 Track not present in AccurateRip database Copy OK
Track 15
Filename C:\_new\_____to upload\The Slackers {2004} Upsettin' Ernesto [flac]\15 - Dub Two.wav
Peak level 98.8 % Track quality 100.0 % Test CRC 2662AA78 Copy CRC 2662AA78 Track not present in AccurateRip database Copy OK
Track 16
Filename C:\_new\_____to upload\The Slackers {2004} Upsettin' Ernesto [flac]\16 - Have the Time.wav
Peak level 100.0 % Track quality 100.0 % Test CRC 0B369BDA Copy CRC 0B369BDA Track not present in AccurateRip database Copy OK
Track 17
Filename C:\_new\_____to upload\The Slackers {2004} Upsettin' Ernesto [flac]\17 - Church of Slack.wav
Peak level 100.0 % Track quality 99.9 % Test CRC 4B1BDC9D Copy CRC 4B1BDC9D Track not present in AccurateRip database Copy OK
Track 18
Filename C:\_new\_____to upload\The Slackers {2004} Upsettin' Ernesto [flac]\18 - Please Decide.wav
Peak level 98.8 % Track quality 99.8 % Test CRC B3B56D8B Copy CRC B3B56D8B Track not present in AccurateRip database Copy OK
None of the tracks are present in the AccurateRip database
No errors occurred
End of status report

2005 - An Afternoon in DUB

Exact Audio Copy V0.99 prebeta 4 from 23. January 2008
EAC extraction logfile from 8. May 2009, 12:40
The Slackers / An Afternoon In DUB
Used drive : JLMS XJ-HD166S Adapter: 1 ID: 1
Read mode : SecureUtilize accurate stream : YesDefeat audio cache : YesMake use of C2 pointers : No
Read offset correction : 12Overread into Lead-In and Lead-Out : NoFill up missing offset samples with silence : YesDelete leading and trailing silent blocks : NoNull samples used in CRC calculations : YesUsed interface : Native Win32 interface for Win NT & 2000Gap handling : Appended to previous track
Used output format : User Defined EncoderSelected bitrate : 768 kBit/sQuality : HighAdd ID3 tag : NoCommand line compressor : C:\Program Files\Exact Audio Copy\FLAC\FLAC.EXEAdditional command line options : -6 -V -T "ARTIST=%a" -T "TITLE=%t" -T "ALBUM=%g" -T "DATE=%y" -T "TRACKNUMBER=%n" -T "GENRE=%m" -T "COMMENT=%e" %s -o %d
TOC of the extracted CD
Track | Start | Length | Start sector | End sector --------------------------------------------------------- 1 | 0:00.00 | 3:34.29 | 0 | 16078 2 | 3:34.29 | 4:02.70 | 16079 | 34298 3 | 7:37.24 | 4:29.17 | 34299 | 54490 4 | 12:06.41 | 1:37.70 | 54491 | 61835 5 | 13:44.36 | 2:18.50 | 61836 | 72235 6 | 16:03.11 | 4:51.15 | 72236 | 94075 7 | 20:54.26 | 4:22.25 | 94076 | 113750 8 | 25:16.51 | 4:20.65 | 113751 | 133315 9 | 29:37.41 | 3:38.69 | 133316 | 149734 10 | 33:16.35 | 4:52.26 | 149735 | 171660 11 | 38:08.61 | 2:52.56 | 171661 | 184616 12 | 41:01.42 | 2:15.38 | 184617 | 194779 13 | 43:17.05 | 4:40.01 | 194780 | 215780 14 | 47:57.06 | 4:47.22 | 215781 | 237327
Track 1
Filename C:\_new\_____to upload\aid\01 - Exploitation Dub.wav
Pre-gap length 0:00:02.00
Peak level 99.0 % Track quality 100.0 % Test CRC 5DCB3C05 Copy CRC 5DCB3C05 Accurately ripped (confidence 2) [F112F146] Copy OK
Track 2
Filename C:\_new\_____to upload\aid\02 - Propaganda Dub.wav
Pre-gap length 0:00:00.01
Peak level 96.3 % Track quality 100.0 % Test CRC 30E0570B Copy CRC 30E0570B Accurately ripped (confidence 2) [1ADB5573] Copy OK
Track 3
Filename C:\_new\_____to upload\aid\03 - Sidney's Dub.wav
Peak level 91.1 % Track quality 100.0 % Test CRC 02D86623 Copy CRC 02D86623 Accurately ripped (confidence 2) [B4D982A4] Copy OK
Track 4
Filename C:\_new\_____to upload\aid\04 - Blues for Allan.wav
Peak level 100.0 % Track quality 100.0 % Test CRC 6DF813A6 Copy CRC 6DF813A6 Accurately ripped (confidence 2) [A471EB46] Copy OK
Track 5
Filename C:\_new\_____to upload\aid\05 - Dub for Schooling.wav
Peak level 99.0 % Track quality 100.0 % Test CRC A50B4C27 Copy CRC A50B4C27 Accurately ripped (confidence 2) [72EC66A3] Copy OK
Track 6
Filename C:\_new\_____to upload\aid\06 - Uncle Pivo.wav
Peak level 98.7 % Track quality 99.9 % Test CRC B5220C17 Copy CRC B5220C17 Accurately ripped (confidence 2) [EBF8D353] Copy OK
Track 7
Filename C:\_new\_____to upload\aid\07 - You Must Be Good Dub.wav
Peak level 96.9 % Track quality 99.9 % Test CRC 1B854561 Copy CRC 1B854561 Accurately ripped (confidence 1) [A6140B48] Copy OK
Track 8
Filename C:\_new\_____to upload\aid\08 - Ascension Dub.wav
Peak level 96.3 % Track quality 100.0 % Test CRC F1252F74 Copy CRC F1252F74 Accurately ripped (confidence 2) [01D8755D] Copy OK
Track 9
Filename C:\_new\_____to upload\aid\09 - Fat Mouse Dub.wav
Peak level 96.3 % Track quality 100.0 % Test CRC 8EA94101 Copy CRC 8EA94101 Accurately ripped (confidence 2) [12EB07F9] Copy OK
Track 10
Filename C:\_new\_____to upload\aid\10 - Runaway Dub.wav
Peak level 96.3 % Track quality 100.0 % Test CRC FB7DE23F Copy CRC FB7DE23F Accurately ripped (confidence 2) [88FB6292] Copy OK
Track 11
Filename C:\_new\_____to upload\aid\11 - Cracker Dub.wav
Peak level 98.7 % Track quality 100.0 % Test CRC B87D1E0A Copy CRC B87D1E0A Accurately ripped (confidence 2) [F95326FC] Copy OK
Track 12
Filename C:\_new\_____to upload\aid\12 - The Glide.wav
Peak level 97.9 % Track quality 100.0 % Test CRC C1327988 Copy CRC C1327988 Accurately ripped (confidence 2) [EBB42010] Copy OK
Track 13
Filename C:\_new\_____to upload\aid\13 - Make Me Smile Dub.wav
Peak level 100.0 % Track quality 100.0 % Test CRC 168E2C2D Copy CRC 168E2C2D Accurately ripped (confidence 2) [78CB98C1] Copy OK
Track 14
Filename C:\_new\_____to upload\aid\14 - Dub for Ira (feat. Congo 'Ashanti' Roy).wav
Peak level 95.6 % Track quality 100.0 % Test CRC DE6C3B9B Copy CRC DE6C3B9B Accurately ripped (confidence 2) [AC081751] Copy OK
All tracks accurately ripped
No errors occurred
End of status report

2006 - Peculiar

Exact Audio Copy V0.99 prebeta 4 from 23. January 2008
EAC extraction logfile from 28. April 2009, 20:15
The Slackers / Peculiar
Used drive : _NEC DVD_RW ND-1300A Adapter: 1 ID: 0
Read mode : SecureUtilize accurate stream : YesDefeat audio cache : YesMake use of C2 pointers : No
Read offset correction : 48Overread into Lead-In and Lead-Out : NoFill up missing offset samples with silence : YesDelete leading and trailing silent blocks : NoNull samples used in CRC calculations : YesUsed interface : Native Win32 interface for Win NT & 2000Gap handling : Appended to previous track
Used output format : User Defined EncoderSelected bitrate : 768 kBit/sQuality : HighAdd ID3 tag : NoCommand line compressor : C:\Programfiler\FLAC\flac.exeAdditional command line options : -V -8 -T "artist=%a" -T "title=%t" -T "album=%g" -T "date=%y" -T "tracknumber=%n" -T "genre=%m" %s
TOC of the extracted CD
Track | Start | Length | Start sector | End sector --------------------------------------------------------- 1 | 0:00.00 | 4:23.08 | 0 | 19732 2 | 4:23.08 | 4:08.17 | 19733 | 38349 3 | 8:31.25 | 4:31.72 | 38350 | 58746 4 | 13:03.22 | 3:31.40 | 58747 | 74611 5 | 16:34.62 | 2:38.36 | 74612 | 86497 6 | 19:13.23 | 3:21.34 | 86498 | 101606 7 | 22:34.57 | 2:59.32 | 101607 | 115063 8 | 25:34.14 | 3:55.50 | 115064 | 132738 9 | 29:29.64 | 3:05.63 | 132739 | 146676 10 | 32:35.52 | 3:57.70 | 146677 | 164521 11 | 36:33.47 | 3:46.34 | 164522 | 181505 12 | 40:20.06 | 4:02.23 | 181506 | 199678 13 | 44:22.29 | 4:18.18 | 199679 | 219046 14 | 51:12.47 | 18:09.11 | 230447 | 312132
Track 1
Filename C:\EAC rips\The Slackers - 2006 - Peculiar\01 - 86 the Mayo.wav
Pre-gap length 0:00:02.00
Peak level 99.0 % Track quality 100.0 % Test CRC ED40805C Copy CRC ED40805C Accurately ripped (confidence 2) [83EBF999] Copy OK
Track 2
Filename C:\EAC rips\The Slackers - 2006 - Peculiar\02 - Peculiar.wav
Peak level 99.0 % Track quality 100.0 % Test CRC E6E07B00 Copy CRC E6E07B00 Accurately ripped (confidence 3) [DF8DC556] Copy OK
Track 3
Filename C:\EAC rips\The Slackers - 2006 - Peculiar\03 - Propaganda.wav
Peak level 99.0 % Track quality 99.9 % Test CRC 93E399F7 Copy CRC 93E399F7 Accurately ripped (confidence 3) [AD22321D] Copy OK
Track 4
Filename C:\EAC rips\The Slackers - 2006 - Peculiar\04 - Crazy.wav
Peak level 99.0 % Track quality 99.9 % Test CRC BC6C49F0 Copy CRC BC6C49F0 Accurately ripped (confidence 3) [BD12EF21] Copy OK
Track 5
Filename C:\EAC rips\The Slackers - 2006 - Peculiar\05 - Set the Girl Free.wav
Peak level 99.0 % Track quality 100.0 % Test CRC 4610163D Copy CRC 4610163D Accurately ripped (confidence 3) [62E57025] Copy OK
Track 6
Filename C:\EAC rips\The Slackers - 2006 - Peculiar\06 - In Walked Capo.wav
Peak level 99.0 % Track quality 100.0 % Test CRC A871A0A1 Copy CRC A871A0A1 Accurately ripped (confidence 3) [A8702FAA] Copy OK
Track 7
Filename C:\EAC rips\The Slackers - 2006 - Peculiar\07 - I'd Rather Die Happy.wav
Peak level 95.4 % Track quality 100.0 % Test CRC 1F5D9B83 Copy CRC 1F5D9B83 Accurately ripped (confidence 3) [EC9FE3FC] Copy OK
Track 8
Filename C:\EAC rips\The Slackers - 2006 - Peculiar\08 - What Went Wrong.wav
Peak level 99.0 % Track quality 100.0 % Test CRC 9D8709A5 Copy CRC 9D8709A5 Accurately ripped (confidence 3) [58D878AE] Copy OK
Track 9
Filename C:\EAC rips\The Slackers - 2006 - Peculiar\09 - Keep It Simple.wav
Peak level 99.0 % Track quality 100.0 % Test CRC 0B460273 Copy CRC 0B460273 Accurately ripped (confidence 3) [141D2875] Copy OK
Track 10
Filename C:\EAC rips\The Slackers - 2006 - Peculiar\10 - International War Criminal.wav
Peak level 99.1 % Track quality 100.0 % Test CRC E08C3422 Copy CRC E08C3422 Accurately ripped (confidence 3) [A931C428] Copy OK
Track 11
Filename C:\EAC rips\The Slackers - 2006 - Peculiar\11 - Sauron.wav
Peak level 99.0 % Track quality 99.9 % Test CRC E41E2DD4 Copy CRC E41E2DD4 Accurately ripped (confidence 3) [A84CBD3E] Copy OK
Track 12
Filename C:\EAC rips\The Slackers - 2006 - Peculiar\12 - Rider.wav
Peak level 99.0 % Track quality 100.0 % Test CRC E2D0072C Copy CRC E2D0072C Accurately ripped (confidence 3) [4FCD0557] Copy OK
Track 13
Filename C:\EAC rips\The Slackers - 2006 - Peculiar\13 - I Shall Be Released.wav
Peak level 99.0 % Track quality 100.0 % Test CRC 0D7C61FB Copy CRC 0D7C61FB Accurately ripped (confidence 3) [3BDA2813] Copy OK
All tracks accurately ripped
No errors occurred
End of status report

2007 - The Boss Harmony Sessions

Exact Audio Copy V0.99 prebeta 4 from 23. January 2008
EAC extraction logfile from 7. March 2009, 1:45
The Slackers / The Boss Harmony Sessions
Used drive : HL-DT-STDVDRAM GSA-4163B Adapter: 1 ID: 0
Read mode : SecureUtilize accurate stream : YesDefeat audio cache : YesMake use of C2 pointers : No
Read offset correction : 667Overread into Lead-In and Lead-Out : NoFill up missing offset samples with silence : YesDelete leading and trailing silent blocks : NoNull samples used in CRC calculations : YesUsed interface : Native Win32 interface for Win NT & 2000Gap handling : Appended to previous track
Used output format : User Defined EncoderSelected bitrate : 768 kBit/sQuality : HighAdd ID3 tag : NoCommand line compressor : C:\Program Files\Exact Audio Copy\FLAC\FLAC.EXEAdditional command line options : -6 -V -T "ARTIST=%a" -T "TITLE=%t" -T "ALBUM=%g" -T "DATE=%y" -T "TRACKNUMBER=%n" -T "GENRE=%m" -T "COMMENT=%e" %s -o %d
TOC of the extracted CD
Track | Start | Length | Start sector | End sector --------------------------------------------------------- 1 | 0:00.00 | 0:33.15 | 0 | 2489 2 | 0:33.15 | 4:41.21 | 2490 | 23585 3 | 5:14.36 | 4:01.05 | 23586 | 41665 4 | 9:15.41 | 3:56.39 | 41666 | 59404 5 | 13:12.05 | 4:58.40 | 59405 | 81794 6 | 18:10.45 | 3:36.51 | 81795 | 98045 7 | 21:47.21 | 2:36.21 | 98046 | 109766 8 | 24:23.42 | 4:08.65 | 109767 | 128431 9 | 28:32.32 | 3:03.40 | 128432 | 142196 10 | 31:35.72 | 3:13.64 | 142197 | 156735 11 | 34:49.61 | 4:10.22 | 156736 | 175507 12 | 39:00.08 | 3:19.09 | 175508 | 190441 13 | 42:19.17 | 4:18.40 | 190442 | 209831 14 | 46:37.57 | 0:29.74 | 209832 | 212080
Track 1
Filename F:\Music\The Slackers {2007} The Boss Harmony Sessions [FLAC]\01 - Boss Harmony Speaks.wav
Pre-gap length 0:00:02.00
Peak level 98.3 % Track quality 99.6 % Test CRC D6EC9414 Copy CRC D6EC9414 Track not present in AccurateRip database Copy OK
Track 2
Filename F:\Music\The Slackers {2007} The Boss Harmony Sessions [FLAC]\02 - Robots.wav
Peak level 98.8 % Track quality 100.0 % Test CRC 483BDC1D Copy CRC 483BDC1D Track not present in AccurateRip database Copy OK
Track 3
Filename F:\Music\The Slackers {2007} The Boss Harmony Sessions [FLAC]\03 - Feed My Girl Ska.wav
Peak level 98.6 % Track quality 99.9 % Test CRC FCE9C3E2 Copy CRC FCE9C3E2 Track not present in AccurateRip database Copy OK
Track 4
Filename F:\Music\The Slackers {2007} The Boss Harmony Sessions [FLAC]\04 - Funk Week.wav
Peak level 98.8 % Track quality 100.0 % Test CRC CE680280 Copy CRC CE680280 Track not present in AccurateRip database Copy OK
Track 5
Filename F:\Music\The Slackers {2007} The Boss Harmony Sessions [FLAC]\05 - Mama Told Me.wav
Peak level 98.8 % Track quality 99.9 % Test CRC 140048BA Copy CRC 140048BA Track not present in AccurateRip database Copy OK
Track 6
Filename F:\Music\The Slackers {2007} The Boss Harmony Sessions [FLAC]\06 - Mind Your Own Business.wav
Peak level 98.7 % Track quality 100.0 % Test CRC 78F2134F Copy CRC 78F2134F Track not present in AccurateRip database Copy OK
Track 7
Filename F:\Music\The Slackers {2007} The Boss Harmony Sessions [FLAC]\07 - El Gato.wav
Peak level 98.8 % Track quality 100.0 % Test CRC CE39E097 Copy CRC CE39E097 Track not present in AccurateRip database Copy OK
Track 8
Filename F:\Music\The Slackers {2007} The Boss Harmony Sessions [FLAC]\08 - Ska Boheme.wav
Peak level 98.8 % Track quality 100.0 % Test CRC E5ED0DC9 Copy CRC E5ED0DC9 Track not present in AccurateRip database Copy OK
Track 9
Filename F:\Music\The Slackers {2007} The Boss Harmony Sessions [FLAC]\09 - Wanted Man.wav
Peak level 98.8 % Track quality 100.0 % Test CRC 6A662EC9 Copy CRC 6A662EC9 Track not present in AccurateRip database Copy OK
Track 10
Filename F:\Music\The Slackers {2007} The Boss Harmony Sessions [FLAC]\10 - Yer Still Blue.wav
Peak level 98.8 % Track quality 100.0 % Test CRC 7D2AFC31 Copy CRC 7D2AFC31 Track not present in AccurateRip database Copy OK
Track 11
Filename F:\Music\The Slackers {2007} The Boss Harmony Sessions [FLAC]\11 - Minha Menina.wav
Peak level 98.8 % Track quality 100.0 % Test CRC 0D8F4F5C Copy CRC 0D8F4F5C Track not present in AccurateRip database Copy OK
Track 12
Filename F:\Music\The Slackers {2007} The Boss Harmony Sessions [FLAC]\12 - Lil Joe.wav
Peak level 98.8 % Track quality 100.0 % Test CRC 1F7109B8 Copy CRC 1F7109B8 Track not present in AccurateRip database Copy OK
Track 13
Filename F:\Music\The Slackers {2007} The Boss Harmony Sessions [FLAC]\13 - Body Double.wav
Peak level 98.8 % Track quality 100.0 % Test CRC F02993DD Copy CRC F02993DD Track not present in AccurateRip database Copy OK
Track 14
Filename F:\Music\The Slackers {2007} The Boss Harmony Sessions [FLAC]\14 - Boss Harmony Says Goodbye.wav
Peak level 98.8 % Track quality 100.0 % Test CRC 00CA1954 Copy CRC 00CA1954 Track not present in AccurateRip database Copy OK
None of the tracks are present in the AccurateRip database
No errors occurred
End of status report

2005 - Slack In Japan

Exact Audio Copy V0.99 prebeta 4 from 23. January 2008
EAC extraction logfile from 25. December 2008, 13:43
The Slackers / Slack in Japan
Used drive : HL-DT-STRW/DVD GCC-T10N Adapter: 1 ID: 0
Read mode : SecureUtilize accurate stream : YesDefeat audio cache : YesMake use of C2 pointers : No
Read offset correction : 102Overread into Lead-In and Lead-Out : NoFill up missing offset samples with silence : YesDelete leading and trailing silent blocks : NoNull samples used in CRC calculations : YesUsed interface : Installed external ASPI interfaceGap handling : Appended to previous track
Used output format : User Defined EncoderSelected bitrate : 192 kBit/sQuality : HighAdd ID3 tag : NoCommand line compressor : C:\Program Files\Exact Audio Copy\Flac\flac.exeAdditional command line options : -V -8 -T "artist=%a" -T "title=%t" -T "album=%g" -T "date=%y" -T "tracknumber=%n" -T "genre=%m" %s
TOC of the extracted CD
Track | Start | Length | Start sector | End sector --------------------------------------------------------- 1 | 0:00.00 | 3:31.08 | 0 | 15832 2 | 3:31.08 | 3:28.10 | 15833 | 31442 3 | 6:59.18 | 3:15.52 | 31443 | 46119 4 | 10:14.70 | 3:17.25 | 46120 | 60919 5 | 13:32.20 | 3:59.56 | 60920 | 78900 6 | 17:32.01 | 2:37.13 | 78901 | 90688 7 | 20:09.14 | 3:13.70 | 90689 | 105233 8 | 23:23.09 | 4:02.55 | 105234 | 123438 9 | 27:25.64 | 5:04.15 | 123439 | 146253 10 | 32:30.04 | 3:19.18 | 146254 | 161196 11 | 35:49.22 | 3:26.65 | 161197 | 176711 12 | 39:16.12 | 4:36.00 | 176712 | 197411 13 | 43:52.12 | 4:39.10 | 197412 | 218346 14 | 48:31.22 | 4:12.63 | 218347 | 237309 15 | 52:44.10 | 6:40.73 | 237310 | 267382
Track 1
Filename F:\eac FLAC rips\The Slackers - Slack In Japan (Live) (2005) [FLAC]\01 - Have the Time.wav
Pre-gap length 0:00:02.00
Peak level 98.7 % Track quality 100.0 % Test CRC F9772E54 Copy CRC F9772E54 Track not present in AccurateRip database Copy OK
Track 2
Filename F:\eac FLAC rips\The Slackers - Slack In Japan (Live) (2005) [FLAC]\02 - Watch THis.wav
Peak level 98.8 % Track quality 100.0 % Test CRC 135E6447 Copy CRC 135E6447 Track not present in AccurateRip database Copy OK
Track 3
Filename F:\eac FLAC rips\The Slackers - Slack In Japan (Live) (2005) [FLAC]\03 - Mommy.wav
Peak level 98.8 % Track quality 100.0 % Test CRC 3A699F8A Copy CRC 3A699F8A Track not present in AccurateRip database Copy OK
Track 4
Filename F:\eac FLAC rips\The Slackers - Slack In Japan (Live) (2005) [FLAC]\04 - Capo.wav
Peak level 98.8 % Track quality 100.0 % Test CRC C61C6E7C Copy CRC C61C6E7C Track not present in AccurateRip database Copy OK
Track 5
Filename F:\eac FLAC rips\The Slackers - Slack In Japan (Live) (2005) [FLAC]\05 - Propaganda.wav
Peak level 98.8 % Track quality 99.9 % Test CRC 39C88257 Copy CRC 39C88257 Track not present in AccurateRip database Copy OK
Track 6
Filename F:\eac FLAC rips\The Slackers - Slack In Japan (Live) (2005) [FLAC]\06 - Knowing.wav
Peak level 98.8 % Track quality 100.0 % Test CRC 35C84536 Copy CRC 35C84536 Track not present in AccurateRip database Copy OK
Track 7
Filename F:\eac FLAC rips\The Slackers - Slack In Japan (Live) (2005) [FLAC]\07 - I Still Love You.wav
Peak level 98.7 % Track quality 99.9 % Test CRC 3A8145ED Copy CRC 3A8145ED Track not present in AccurateRip database Copy OK
Track 8
Filename F:\eac FLAC rips\The Slackers - Slack In Japan (Live) (2005) [FLAC]\08 - Married Girl.wav
Peak level 98.8 % Track quality 99.9 % Test CRC 4C65B28D Copy CRC 4C65B28D Track not present in AccurateRip database Copy OK
Track 9
Filename F:\eac FLAC rips\The Slackers - Slack In Japan (Live) (2005) [FLAC]\09 - Shankbone.wav
Peak level 98.8 % Track quality 100.0 % Test CRC 7067BA1E Copy CRC 7067BA1E Track not present in AccurateRip database Copy OK
Track 10
Filename F:\eac FLAC rips\The Slackers - Slack In Japan (Live) (2005) [FLAC]\10 - Rude and Reckless.wav
Peak level 98.8 % Track quality 99.9 % Test CRC 25008EC3 Copy CRC 25008EC3 Track not present in AccurateRip database Copy OK
Track 11
Filename F:\eac FLAC rips\The Slackers - Slack In Japan (Live) (2005) [FLAC]\11 - Walking On.wav
Peak level 98.8 % Track quality 99.9 % Test CRC 6F88BCA7 Copy CRC 6F88BCA7 Track not present in AccurateRip database Copy OK
Track 12
Filename F:\eac FLAC rips\The Slackers - Slack In Japan (Live) (2005) [FLAC]\12 - Pedophelia , Linda Linda.wav
Peak level 98.8 % Track quality 100.0 % Test CRC 525C96E0 Copy CRC 525C96E0 Track not present in AccurateRip database Copy OK
Track 13
Filename F:\eac FLAC rips\The Slackers - Slack In Japan (Live) (2005) [FLAC]\13 - Old Dog.wav
Peak level 98.8 % Track quality 100.0 % Test CRC DD19EAC8 Copy CRC DD19EAC8 Track not present in AccurateRip database Copy OK
Track 14
Filename F:\eac FLAC rips\The Slackers - Slack In Japan (Live) (2005) [FLAC]\14 - Cooking for Tommy.wav
Peak level 98.8 % Track quality 100.0 % Test CRC 1AA86269 Copy CRC 1AA86269 Track not present in AccurateRip database Copy OK
Track 15
Filename F:\eac FLAC rips\The Slackers - Slack In Japan (Live) (2005) [FLAC]\15 - Work Song.wav
Pre-gap length 0:00:05.00
Peak level 98.9 % Track quality 100.0 % Test CRC D8DBA669 Copy CRC D8DBA669 Track not present in AccurateRip database Copy OK
None of the tracks are present in the AccurateRip database
No errors occurred
End of status report
-


[islamvillage.com]_t_1995356.torrent
Торрент: Зарегистрирован ·  [ 2017-10-09 18:48 ] ·  4ba7f553b6ca727fe43102ea66450cc83cacaffa

45 KB

Статус: проверено
Скачан: 0 раз
Размер: 4.52 GB
Оценка: 
(Голосов: 0)
Сказали спасибо: 0  Спасибо
Похожие темы
[Профиль]    [ЛС]
Показать сообщения:    
Ответить на тему

Текущее время: Сегодня 07:15

Часовой пояс: GMT + 7



Вы не можете начинать темы
Вы не можете отвечать на сообщения
Вы не можете редактировать свои сообщения
Вы не можете удалять свои сообщения
Вы не можете голосовать в опросах
Вы не можете прикреплять файлы к сообщениям
Вы можете скачивать файлы


Biography & Autobiography | Ukiyo 10ml Vernis Semi Permanent Soak Off UV LED Gel Polish 6pcs Kit Manicure | 600 Wachsperlen 4mm Farbwahl Perlen Perlensterne Drahtsterne Dekoperlen Kette