(SkaPunk) Mad Caddies - Live From Toronto: Songs In The Key Of Eh - 2004, FLAC (tracks+.cue), lossless

Ответить на тему
Статистика раздачи [Обновить пиров]
Размер:  371 MB   |    Зарегистрирован:  1 год 3 месяца   |    Скачан:  0 раз

Полного источника не было: Никогда

 
   
 
 
 
Автор Сообщение

islamvillage.com

Создавать темы 09-Окт-2017 18:50

[Цитировать]

Mad Caddies - Live From Toronto: Songs In The Key Of Eh- Жанр: SkaPunk
Год выхода диска: 2004
Производитель диска: USA
Аудио кодек: FLAC
Тип рипа: tracks+.cue
Битрейт аудио: lossless
Продолжительность: 56:47
Трэклист:
01. Intro (1:46)
02. Macho Nachos (3:39)
03. 10 West (2:54)
04. Leavin (2:51)
05. Weird Beard (2:53)
06. No Hope (1:34)
07. Contraband (1:19)
08. Monkeys (3:26)
09. Days Away/The Bell Tower/Popcorn (6:27)
10. The Gentleman (2:24)
11. Villains (2:21)
12. Last Breath (3:08)
13. Mary Melody (3:29)
14. Drinking For 11 (3:46)
15. Preppie Girl (3:04)
16. Secret Song (1:30)
17. Road Rash (2:04)
18. Silence (2:45)
19. All American Bad Ass (5:29)
-

EAC

X Lossless Decoder version 20090320 (105.1)
XLD extraction logfile from 2009-05-13 18:13:40 +0100
Mad Caddies / Live From Toronto: Songs In The Key Of Eh
Used drive : MATSHITA DVD-R UJ-868 (revision KA14)
Use cdparanoia mode : YES (CDParanoia III 10.2 engine)Disable audio cache : OK for the drive with cache less than 2750KBMake use of C2 pointers : NORead offset correction : 102Max retry count : 100
TOC of the extracted CD Track | Start | Length | Start sector | End sector --------------------------------------------------------- 1 | 00:00:00 | 01:46:17 | 0 | 7966 2 | 01:46:17 | 03:39:13 | 7967 | 24404 3 | 05:25:30 | 02:54:00 | 24405 | 37454 4 | 08:19:30 | 02:51:34 | 37455 | 50313 5 | 11:10:64 | 02:52:68 | 50314 | 63281 6 | 14:03:57 | 01:33:40 | 63282 | 70296 7 | 15:37:22 | 01:18:68 | 70297 | 76214 8 | 16:56:15 | 03:25:60 | 76215 | 91649 9 | 20:22:00 | 06:26:47 | 91650 | 120646 10 | 26:48:47 | 02:23:55 | 120647 | 131426 11 | 29:12:27 | 02:21:13 | 131427 | 142014 12 | 31:33:40 | 03:07:57 | 142015 | 156096 13 | 34:41:22 | 03:28:48 | 156097 | 171744 14 | 38:09:70 | 03:45:57 | 171745 | 188676 15 | 41:55:52 | 03:03:45 | 188677 | 202446 16 | 44:59:22 | 01:30:20 | 202447 | 209216 17 | 46:29:42 | 02:03:40 | 209217 | 218481 18 | 48:33:07 | 02:45:08 | 218482 | 230864 19 | 51:18:15 | 05:29:00 | 230865 | 255539
Track 01 Filename : /Users/Shared/Music/01 Intro.flac
CRC32 hash (test run) : 48E58C73 CRC32 hash : 48E58C73 CRC32 hash (skip zero) : 6BB0D0F6 AccurateRip signature : 2EAB0642 ->Accurately ripped! (confidence 6) Statistics Read error : 0 Skipped (treated as error) : 0 Edge jitter error (maybe fixed) : 0 Atom jitter error (maybe fixed) : 0 Drift error (maybe fixed) : 0 Dropped bytes error (maybe fixed) : 0 Duplicated bytes error (maybe fixed) : 0 Inconsistency in error sectors : 0
Track 02 Filename : /Users/Shared/Music/02 Macho Nachos.flac
CRC32 hash (test run) : 05EE68EA CRC32 hash : 05EE68EA CRC32 hash (skip zero) : 9E73AE86 AccurateRip signature : ECC7B797 ->Accurately ripped! (confidence 6) Statistics Read error : 0 Skipped (treated as error) : 0 Edge jitter error (maybe fixed) : 0 Atom jitter error (maybe fixed) : 0 Drift error (maybe fixed) : 0 Dropped bytes error (maybe fixed) : 0 Duplicated bytes error (maybe fixed) : 0 Inconsistency in error sectors : 0
Track 03 Filename : /Users/Shared/Music/03 10 West.flac
CRC32 hash (test run) : B8CF0D5F CRC32 hash : B8CF0D5F CRC32 hash (skip zero) : 4EE7D872 AccurateRip signature : D6375E6D ->Accurately ripped! (confidence 6) Statistics Read error : 0 Skipped (treated as error) : 0 Edge jitter error (maybe fixed) : 0 Atom jitter error (maybe fixed) : 0 Drift error (maybe fixed) : 0 Dropped bytes error (maybe fixed) : 0 Duplicated bytes error (maybe fixed) : 0 Inconsistency in error sectors : 0
Track 04 Filename : /Users/Shared/Music/04 Leavin.flac
CRC32 hash (test run) : 367C2ACD CRC32 hash : 367C2ACD CRC32 hash (skip zero) : DBFAAC93 AccurateRip signature : 9052E6B3 ->Accurately ripped! (confidence 6) Statistics Read error : 0 Skipped (treated as error) : 0 Edge jitter error (maybe fixed) : 0 Atom jitter error (maybe fixed) : 0 Drift error (maybe fixed) : 0 Dropped bytes error (maybe fixed) : 0 Duplicated bytes error (maybe fixed) : 0 Inconsistency in error sectors : 0
Track 05 Filename : /Users/Shared/Music/05 Weird Beard.flac
CRC32 hash (test run) : 9AE49135 CRC32 hash : 9AE49135 CRC32 hash (skip zero) : D14D6BB4 AccurateRip signature : EB78E583 ->Accurately ripped! (confidence 6) Statistics Read error : 0 Skipped (treated as error) : 0 Edge jitter error (maybe fixed) : 0 Atom jitter error (maybe fixed) : 0 Drift error (maybe fixed) : 0 Dropped bytes error (maybe fixed) : 0 Duplicated bytes error (maybe fixed) : 0 Inconsistency in error sectors : 0
Track 06 Filename : /Users/Shared/Music/06 No Hope.flac
CRC32 hash (test run) : 53090E8C CRC32 hash : 53090E8C CRC32 hash (skip zero) : 7969D303 AccurateRip signature : D2AA34CE ->Accurately ripped! (confidence 6) Statistics Read error : 0 Skipped (treated as error) : 0 Edge jitter error (maybe fixed) : 0 Atom jitter error (maybe fixed) : 0 Drift error (maybe fixed) : 0 Dropped bytes error (maybe fixed) : 0 Duplicated bytes error (maybe fixed) : 0 Inconsistency in error sectors : 0
Track 07 Filename : /Users/Shared/Music/07 Contraband.flac
CRC32 hash (test run) : 79367F00 CRC32 hash : 79367F00 CRC32 hash (skip zero) : 97A041DA AccurateRip signature : CDB533A9 ->Accurately ripped! (confidence 6) Statistics Read error : 0 Skipped (treated as error) : 0 Edge jitter error (maybe fixed) : 0 Atom jitter error (maybe fixed) : 0 Drift error (maybe fixed) : 0 Dropped bytes error (maybe fixed) : 0 Duplicated bytes error (maybe fixed) : 0 Inconsistency in error sectors : 0
Track 08 Filename : /Users/Shared/Music/08 Monkeys.flac
CRC32 hash (test run) : 449340A6 CRC32 hash : 449340A6 CRC32 hash (skip zero) : 65ED3956 AccurateRip signature : 63ECD588 ->Accurately ripped! (confidence 6) Statistics Read error : 0 Skipped (treated as error) : 0 Edge jitter error (maybe fixed) : 0 Atom jitter error (maybe fixed) : 0 Drift error (maybe fixed) : 0 Dropped bytes error (maybe fixed) : 0 Duplicated bytes error (maybe fixed) : 0 Inconsistency in error sectors : 0
Track 09 Filename : /Users/Shared/Music/09 Days Away/The Bell Tower/Popcorn.flac
CRC32 hash (test run) : A8CCFD8E CRC32 hash : A8CCFD8E CRC32 hash (skip zero) : 61144F88 AccurateRip signature : 8F7CD86A ->Accurately ripped! (confidence 6) Statistics Read error : 0 Skipped (treated as error) : 0 Edge jitter error (maybe fixed) : 0 Atom jitter error (maybe fixed) : 0 Drift error (maybe fixed) : 0 Dropped bytes error (maybe fixed) : 0 Duplicated bytes error (maybe fixed) : 0 Inconsistency in error sectors : 0
Track 10 Filename : /Users/Shared/Music/10 The Gentleman.flac
CRC32 hash (test run) : DE95D379 CRC32 hash : DE95D379 CRC32 hash (skip zero) : 3CDFD10B AccurateRip signature : 29C8B672 ->Accurately ripped! (confidence 6) Statistics Read error : 0 Skipped (treated as error) : 0 Edge jitter error (maybe fixed) : 0 Atom jitter error (maybe fixed) : 0 Drift error (maybe fixed) : 0 Dropped bytes error (maybe fixed) : 0 Duplicated bytes error (maybe fixed) : 0 Inconsistency in error sectors : 0
Track 11 Filename : /Users/Shared/Music/11 Villains.flac
CRC32 hash (test run) : EB85B8BC CRC32 hash : EB85B8BC CRC32 hash (skip zero) : 6EBC2C18 AccurateRip signature : 7B62F805 ->Accurately ripped! (confidence 6) Statistics Read error : 0 Skipped (treated as error) : 0 Edge jitter error (maybe fixed) : 0 Atom jitter error (maybe fixed) : 0 Drift error (maybe fixed) : 0 Dropped bytes error (maybe fixed) : 0 Duplicated bytes error (maybe fixed) : 0 Inconsistency in error sectors : 0
Track 12 Filename : /Users/Shared/Music/12 Last Breath.flac
CRC32 hash (test run) : A000C16C CRC32 hash : A000C16C CRC32 hash (skip zero) : 39837456 AccurateRip signature : 78D1EFAE ->Accurately ripped! (confidence 6) Statistics Read error : 0 Skipped (treated as error) : 0 Edge jitter error (maybe fixed) : 0 Atom jitter error (maybe fixed) : 0 Drift error (maybe fixed) : 0 Dropped bytes error (maybe fixed) : 0 Duplicated bytes error (maybe fixed) : 0 Inconsistency in error sectors : 0
Track 13 Filename : /Users/Shared/Music/13 Mary Melody.flac
CRC32 hash (test run) : D591F075 CRC32 hash : D591F075 CRC32 hash (skip zero) : F792264B AccurateRip signature : 9027E424 ->Accurately ripped! (confidence 6) Statistics Read error : 0 Skipped (treated as error) : 0 Edge jitter error (maybe fixed) : 0 Atom jitter error (maybe fixed) : 0 Drift error (maybe fixed) : 0 Dropped bytes error (maybe fixed) : 0 Duplicated bytes error (maybe fixed) : 0 Inconsistency in error sectors : 0
Track 14 Filename : /Users/Shared/Music/14 Drinking For 11.flac
CRC32 hash (test run) : 6E50ACED CRC32 hash : 6E50ACED CRC32 hash (skip zero) : 36946D4A AccurateRip signature : A1B37675 ->Accurately ripped! (confidence 6) Statistics Read error : 0 Skipped (treated as error) : 0 Edge jitter error (maybe fixed) : 0 Atom jitter error (maybe fixed) : 0 Drift error (maybe fixed) : 0 Dropped bytes error (maybe fixed) : 0 Duplicated bytes error (maybe fixed) : 0 Inconsistency in error sectors : 0
Track 15 Filename : /Users/Shared/Music/15 Preppie Girl.flac
CRC32 hash (test run) : A3DA9A36 CRC32 hash : A3DA9A36 CRC32 hash (skip zero) : E2A58839 AccurateRip signature : FF913596 ->Accurately ripped! (confidence 6) Statistics Read error : 0 Skipped (treated as error) : 0 Edge jitter error (maybe fixed) : 0 Atom jitter error (maybe fixed) : 0 Drift error (maybe fixed) : 0 Dropped bytes error (maybe fixed) : 0 Duplicated bytes error (maybe fixed) : 0 Inconsistency in error sectors : 0
Track 16 Filename : /Users/Shared/Music/16 Secret Song.flac
CRC32 hash (test run) : 82686229 CRC32 hash : 82686229 CRC32 hash (skip zero) : 671EA225 AccurateRip signature : DDB651F4 ->Accurately ripped! (confidence 6) Statistics Read error : 0 Skipped (treated as error) : 0 Edge jitter error (maybe fixed) : 0 Atom jitter error (maybe fixed) : 0 Drift error (maybe fixed) : 0 Dropped bytes error (maybe fixed) : 0 Duplicated bytes error (maybe fixed) : 0 Inconsistency in error sectors : 0
Track 17 Filename : /Users/Shared/Music/17 Road Rash.flac
CRC32 hash (test run) : 143AABA1 CRC32 hash : 143AABA1 CRC32 hash (skip zero) : 5575DDEA AccurateRip signature : 55826770 ->Accurately ripped! (confidence 5) Statistics Read error : 0 Skipped (treated as error) : 0 Edge jitter error (maybe fixed) : 0 Atom jitter error (maybe fixed) : 0 Drift error (maybe fixed) : 0 Dropped bytes error (maybe fixed) : 0 Duplicated bytes error (maybe fixed) : 0 Inconsistency in error sectors : 0
Track 18 Filename : /Users/Shared/Music/18 Silence.flac
CRC32 hash (test run) : BF5C8604 CRC32 hash : BF5C8604 CRC32 hash (skip zero) : 121EC870 AccurateRip signature : 4799082D ->Accurately ripped! (confidence 5) Statistics Read error : 0 Skipped (treated as error) : 0 Edge jitter error (maybe fixed) : 0 Atom jitter error (maybe fixed) : 0 Drift error (maybe fixed) : 0 Dropped bytes error (maybe fixed) : 0 Duplicated bytes error (maybe fixed) : 0 Inconsistency in error sectors : 0
Track 19 Filename : /Users/Shared/Music/19 All American Bad Ass.flac
CRC32 hash (test run) : 4DDA5E38 CRC32 hash : 4DDA5E38 CRC32 hash (skip zero) : 4D3DFF2A AccurateRip signature : 370E27DD ->Accurately ripped! (confidence 5) Statistics Read error : 0 Skipped (treated as error) : 0 Edge jitter error (maybe fixed) : 0 Atom jitter error (maybe fixed) : 0 Drift error (maybe fixed) : 0 Dropped bytes error (maybe fixed) : 0 Duplicated bytes error (maybe fixed) : 0 Inconsistency in error sectors : 0
No errors occurred
End of status report
-


[islamvillage.com]_t_1867293.torrent
Торрент: Зарегистрирован ·  [ 2017-10-09 18:48 ] ·  790010f869bf050309eda3cae6ec3a0ddf362a78

17 KB

Статус: проверено
Скачан: 0 раз
Размер: 371 MB
Оценка: 
(Голосов: 0)
Сказали спасибо: 0  Спасибо
Похожие темы
[Профиль]    [ЛС]
Показать сообщения:    
Ответить на тему

Текущее время: Сегодня 07:04

Часовой пояс: GMT + 7



Вы не можете начинать темы
Вы не можете отвечать на сообщения
Вы не можете редактировать свои сообщения
Вы не можете удалять свои сообщения
Вы не можете голосовать в опросах
Вы не можете прикреплять файлы к сообщениям
Вы можете скачивать файлы


Kakegurui | Aromatherapie | 2 Broke Girls - Saison 6