(RockSteady) The Sweetbeats - Rub Up! Rub Up! - 2005, FLAC (tracks+.cue), lossless

Ответить на тему
Статистика раздачи [Обновить пиров]
Размер:  282 MB   |    Зарегистрирован:  1 год 3 месяца   |    Скачан:  0 раз

Полного источника не было: Никогда

 
   
 
 
 
Автор Сообщение

islamvillage.com

Создавать темы 09-Окт-2017 18:50

[Цитировать]

The Sweetbeats - Rub Up! Rub Up!- Жанр: SkaMusic/RockSteady
Год выхода диска: 2005
Производитель диска: UK
Аудио кодек: FLAC
Тип рипа: tracks+.cue
Битрейт аудио: lossless
Продолжительность: 43:42
Трэклист:
01. Dance Crasher (4:24)
02. Orange Street (5:34)
03. Heavy Rock (4:10)
04. Little Did You Know (3:47)
05. Thema Laugh (3:30)
06. Hong Kong Flu (5:01)
07. Hey Yeah Baby (4:18)
08. Carry Go Bring Come (5:27)
09. Orange Street (Rhythm Dub) (7:32)
-

EAC

Exact Audio Copy V0.99 prebeta 4 from 23. January 2008
EAC extraction logfile from 30. May 2009, 11:42
The Sweetbeats / Rub Up! Rub Up!
Used drive : Optiarc DVD RW AD-7540A Adapter: 2 ID: 0
Read mode : SecureUtilize accurate stream : YesDefeat audio cache : YesMake use of C2 pointers : No
Read offset correction : 48Overread into Lead-In and Lead-Out : NoFill up missing offset samples with silence : YesDelete leading and trailing silent blocks : NoNull samples used in CRC calculations : YesUsed interface : Native Win32 interface for Win NT & 2000Gap handling : Appended to previous track
Used output format : User Defined EncoderSelected bitrate : 768 kBit/sQuality : HighAdd ID3 tag : NoCommand line compressor : C:\Program Files\Exact Audio Copy\FLAC\FLAC.EXEAdditional command line options : -V -8 -T "artist=%a" -T "title=%t" -T "album=%g" -T "date=%y" -T "tracknumber=%n" -T "genre=%m" %s
TOC of the extracted CD
Track | Start | Length | Start sector | End sector --------------------------------------------------------- 1 | 0:00.00 | 4:23.68 | 0 | 19792 2 | 4:23.68 | 5:34.35 | 19793 | 44877 3 | 9:58.28 | 4:09.69 | 44878 | 63621 4 | 14:08.22 | 3:46.49 | 63622 | 80620 5 | 17:54.71 | 3:30.05 | 80621 | 96375 6 | 21:25.01 | 5:00.74 | 96376 | 118949 7 | 26:26.00 | 4:17.40 | 118950 | 138264 8 | 30:43.40 | 5:26.58 | 138265 | 162772 9 | 36:10.23 | 7:31.74 | 162773 | 196671
Track 1
Filename C:\EACRiPS\The Sweetbeats - Rub Up! Rub Up! [2005]\01 - Dance Crasher.wav
Pre-gap length 0:00:02.00
Peak level 99.6 % Track quality 100.0 % Test CRC 19E8A917 Copy CRC 19E8A917 Track not present in AccurateRip database Copy OK
Track 2
Filename C:\EACRiPS\The Sweetbeats - Rub Up! Rub Up! [2005]\02 - Orange Street.wav
Pre-gap length 0:00:02.00
Peak level 98.0 % Track quality 100.0 % Test CRC BB0FB8AC Copy CRC BB0FB8AC Track not present in AccurateRip database Copy OK
Track 3
Filename C:\EACRiPS\The Sweetbeats - Rub Up! Rub Up! [2005]\03 - Heavy Rock.wav
Pre-gap length 0:00:00.07
Peak level 99.5 % Track quality 100.0 % Test CRC 923DB5C3 Copy CRC 923DB5C3 Track not present in AccurateRip database Copy OK
Track 4
Filename C:\EACRiPS\The Sweetbeats - Rub Up! Rub Up! [2005]\04 - Little Did You Know.wav
Pre-gap length 0:00:00.67
Peak level 100.0 % Track quality 100.0 % Test CRC D0864EB9 Copy CRC D0864EB9 Track not present in AccurateRip database Copy OK
Track 5
Filename C:\EACRiPS\The Sweetbeats - Rub Up! Rub Up! [2005]\05 - Thema Laugh.wav
Pre-gap length 0:00:00.07
Peak level 100.0 % Track quality 100.0 % Test CRC 14D70AE6 Copy CRC 14D70AE6 Track not present in AccurateRip database Copy OK
Track 6
Filename C:\EACRiPS\The Sweetbeats - Rub Up! Rub Up! [2005]\06 - Hong Kong Flu.wav
Pre-gap length 0:00:02.69
Peak level 100.0 % Track quality 100.0 % Test CRC 30AD4374 Copy CRC 30AD4374 Track not present in AccurateRip database Copy OK
Track 7
Filename C:\EACRiPS\The Sweetbeats - Rub Up! Rub Up! [2005]\07 - Hey Yeah Baby.wav
Pre-gap length 0:00:00.14
Peak level 100.0 % Track quality 100.0 % Test CRC C4A094C2 Copy CRC C4A094C2 Track not present in AccurateRip database Copy OK
Track 8
Filename C:\EACRiPS\The Sweetbeats - Rub Up! Rub Up! [2005]\08 - Carry Go Bring Come.wav
Pre-gap length 0:00:02.01
Peak level 99.9 % Track quality 99.9 % Test CRC 7AFF6964 Copy CRC 7AFF6964 Track not present in AccurateRip database Copy OK
Track 9
Filename C:\EACRiPS\The Sweetbeats - Rub Up! Rub Up! [2005]\09 - Orange Street (Rhythm Dub).wav
Pre-gap length 0:00:00.48
Peak level 100.0 % Track quality 100.0 % Test CRC FAA7FEC8 Copy CRC FAA7FEC8 Track not present in AccurateRip database Copy OK
None of the tracks are present in the AccurateRip database
No errors occurred
End of status report
-


[islamvillage.com]_t_1908080.torrent
Торрент: Зарегистрирован ·  [ 2017-10-09 18:48 ] ·  e25d4324d612cefd64be7529d79661a2b36121fd

12 KB

Статус: проверено
Скачан: 0 раз
Размер: 282 MB
Оценка: 
(Голосов: 0)
Сказали спасибо: 0  Спасибо
Похожие темы
[Профиль]    [ЛС]
Показать сообщения:    
Ответить на тему

Текущее время: Сегодня 06:04

Часовой пояс: GMT + 7



Вы не можете начинать темы
Вы не можете отвечать на сообщения
Вы не можете редактировать свои сообщения
Вы не можете удалять свои сообщения
Вы не можете голосовать в опросах
Вы не можете прикреплять файлы к сообщениям
Вы можете скачивать файлы


Countdown Serie TV Streaming Download | SPENCIL School Book Cover 'SCRAPBOOK' Boys/Girls (You Choose Design) 2019 STOCK | Plagi Breslau (2018) POLiSH.720p.SM.WEB.DD2.0.x264-Ralf / Polski film