(SkaJazz/Latin/Rocksteady) Jump With Joey (Joey Altruda) - 2 Albums - 1997 - 1999, FLAC (tracks+.cue), lossless

Ответить на тему
Статистика раздачи [Обновить пиров]
Размер:  684 MB   |    Зарегистрирован:  1 год 3 месяца   |    Скачан:  0 раз

Полного источника не было: Никогда

 
   
 
 
 
Автор Сообщение

islamvillage.com

Создавать темы 09-Окт-2017 18:50

[Цитировать]

Jump With Joey (Joey Altruda)- -Жанр: SkaJazz/Latin/Rocksteady / Год выхода диска: 1997 - 1999 / Производитель диска: USA / Аудио кодек: FLAC ( tracks+.cue) / Битрейт аудио: lossless / Продолжительность: 01:44:23-

1997 - Strictly for You Vol. 2

01. Alipong (4:22)
02. Boogie Shuffle (3:55)
03. A Shot in the Dark (3:50)
04. Dr. Ying Yang (4:00)
05. Provocation (3:34)
06. El Toro (5:39)
07. Ramoncito (3:04)
08. Look Away (4:06)
09. Un Poquito De Tu Amor (4:47)
10. The Mood I'm In (4:55)
11. Bridge View (3:27)
12. Let Me in the Yard (3:24)
13. James Bond (6:03)

1999 - Swingin' Ska Goes South of th' Border


01. Nuevo Ritmo Ska-Chacha (3:40)
02. TV Tray (5:23)
03. Ska Train (4:06)
04. Calafia (5:25)
05. Rigor Mortis (4:33)
06. Undecided (2:39)
07. Fun at King King (4:19)
08. Skood's Jazz Den (4:34)
09. Dancin' Feet (3:24)
10. Uncle Ratso (5:11)
11. Dig That Rock (2:47)
12. Skatrina (3:19)

--Доп. информацияmanicbabe.com писал(а): The Music Of Joey Altruda features a variety of musicians depending upon the context.
He has been known for his work with Don"Sugarcane"Harris during the early to mid eighties in the band Tupelo Chain Sex.
From 1989-1999 he co-led Jump With Joey along with drummer Willie McNeil.
The band made 4 C.D.s-three were released on Rykodisc and the fourth on Lakeshore Records.
JWJ personnel includes Mike Boito-piano;Elliot Caine-trumpet;David Ralicke-trombone;Bill Ungerman/Jim Akimoto-tenor sax.
In 1993 the band relesed "Strictly For You Vol. II" which features Roland Alphonso of Skatalites fame. It was co-produced by Joey with the godfather of all Jamaican producers, Clement "Sir Coxsone" Dodd (of Studio One).
His solo CDs "Cocktails With Joey" and "Kingston Cocktail" (Lakeshore Records) have enjoyed international acclaim and feature the likes of legendary tenor man Plas Johnson (of Pink Panther fame) and Jamaican guitar genius Ernest Ranglin(on Kinston Cocktail only).
Altruda has been known to work with a plethora of musical greats over the years-Levi Dexter, Don & Dewey, Bo Diddley, Joe Strummer, Rico Rodriguez, Leo Nocentelli & Zig Modeliste (the Meters), Lloyd Knibbs(SKatalites), Jack Costanzo, Ernie Andrews, El Gran Fellove, Mongo Santamaria, Chocolate Armenteros, Candido Cameron, Patato Valdez, and many others.
He has led a full Afro Cuban big band in recent years called the Mambo Noir Orchestra.
His current band-Classic Riddims plays Ska, Roscksteady, Reggae, & Dub.
The band features members of Macy Grey's band, Breakestra, Antibalas,Jump With Joey, etc. with guest vocalists Alex Dessert & Destin Berry (of Hepcat) and Persephone Laird (of Ocean 11)
- Источник: Torrentc -

EAC1997 - Strictly for You Vol. 2

X Lossless Decoder version 20080926 (93.3)
XLD extraction logfile from 2008-12-23 08:23:26 -0700
Jump With Joey / Strictly for You Vol. 2
Used drive : MATSHITA CD-RW CW-8123 (revision CA0T)
Use cdparanoia mode : YES (CDParanoia III 10.2 engine)Disable audio cache : OK for the drive with cache less than 2750KBMake use of C2 pointers : NORead offset correction : 103Max retry count : 100
TOC of the extracted CD Track | Start | Length | Start sector | End sector --------------------------------------------------------- 1 | 00:00:00 | 04:22:17 | 0 | 19666 2 | 04:22:17 | 03:54:60 | 19667 | 37276 3 | 08:17:02 | 03:49:43 | 37277 | 54494 4 | 12:06:45 | 03:59:45 | 54495 | 72464 5 | 16:06:15 | 03:33:62 | 72465 | 88501 6 | 19:40:02 | 05:39:10 | 88502 | 113936 7 | 25:19:12 | 03:03:65 | 113937 | 127726 8 | 28:23:02 | 04:05:63 | 127727 | 146164 9 | 32:28:65 | 04:46:45 | 146165 | 167659 10 | 37:15:35 | 04:54:72 | 167660 | 189781 11 | 42:10:32 | 03:27:05 | 189782 | 205311 12 | 45:37:37 | 03:24:08 | 205312 | 220619 13 | 49:01:45 | 06:03:02 | 220620 | 247846
Track 01 Filename : /Users/stevesierra/Music/ALL MUSIC LAPTOP/V0 RIPS/Jump With Joey - Strictly For You, Vol. 2 [V0]/01 - Alipong.flac /Users/stevesierra/Music/ALL MUSIC LAPTOP/V0 RIPS/Jump With Joey - Strictly For You, Vol. 2 [V0]/01 - Alipong.mp3 CRC32 hash (test run) : FC58F528 CRC32 hash : FC58F528 CRC32 hash (skip zero) : E3827061 AccurateRip signature : 8E63423A ->Track not present in AccurateRip database. Statistics Read error : 0 Skipped (treated as error) : 0 Edge jitter error (maybe fixed) : 0 Atom jitter error (maybe fixed) : 0 Drift error (maybe fixed) : 0 Dropped bytes error (maybe fixed) : 0 Duplicated bytes error (maybe fixed) : 0 Inconsistency in error sectors : 0
Track 02 Filename : /Users/stevesierra/Music/ALL MUSIC LAPTOP/V0 RIPS/Jump With Joey - Strictly For You, Vol. 2 [V0]/02 - Boogie Shuffle.flac /Users/stevesierra/Music/ALL MUSIC LAPTOP/V0 RIPS/Jump With Joey - Strictly For You, Vol. 2 [V0]/02 - Boogie Shuffle.mp3 CRC32 hash (test run) : 10DBD636 CRC32 hash : 10DBD636 CRC32 hash (skip zero) : 0889474C AccurateRip signature : 5164DDF4 ->Track not present in AccurateRip database. Statistics Read error : 0 Skipped (treated as error) : 0 Edge jitter error (maybe fixed) : 0 Atom jitter error (maybe fixed) : 0 Drift error (maybe fixed) : 0 Dropped bytes error (maybe fixed) : 0 Duplicated bytes error (maybe fixed) : 0 Inconsistency in error sectors : 0
Track 03 Filename : /Users/stevesierra/Music/ALL MUSIC LAPTOP/V0 RIPS/Jump With Joey - Strictly For You, Vol. 2 [V0]/03 - A Shot in the Dark.flac /Users/stevesierra/Music/ALL MUSIC LAPTOP/V0 RIPS/Jump With Joey - Strictly For You, Vol. 2 [V0]/03 - A Shot in the Dark.mp3 CRC32 hash (test run) : 5D42F0F5 CRC32 hash : 5D42F0F5 CRC32 hash (skip zero) : 8A958B95 AccurateRip signature : EB992791 ->Track not present in AccurateRip database. Statistics Read error : 0 Skipped (treated as error) : 0 Edge jitter error (maybe fixed) : 0 Atom jitter error (maybe fixed) : 0 Drift error (maybe fixed) : 0 Dropped bytes error (maybe fixed) : 0 Duplicated bytes error (maybe fixed) : 0 Inconsistency in error sectors : 0
Track 04 Filename : /Users/stevesierra/Music/ALL MUSIC LAPTOP/V0 RIPS/Jump With Joey - Strictly For You, Vol. 2 [V0]/04 - Dr. Ying Yang.flac /Users/stevesierra/Music/ALL MUSIC LAPTOP/V0 RIPS/Jump With Joey - Strictly For You, Vol. 2 [V0]/04 - Dr. Ying Yang.mp3 CRC32 hash (test run) : 7D45D5A0 CRC32 hash : 7D45D5A0 CRC32 hash (skip zero) : F3080AAF AccurateRip signature : 4B36AC09 ->Track not present in AccurateRip database. Statistics Read error : 0 Skipped (treated as error) : 0 Edge jitter error (maybe fixed) : 0 Atom jitter error (maybe fixed) : 0 Drift error (maybe fixed) : 0 Dropped bytes error (maybe fixed) : 0 Duplicated bytes error (maybe fixed) : 0 Inconsistency in error sectors : 0
Track 05 Filename : /Users/stevesierra/Music/ALL MUSIC LAPTOP/V0 RIPS/Jump With Joey - Strictly For You, Vol. 2 [V0]/05 - Provocation.flac /Users/stevesierra/Music/ALL MUSIC LAPTOP/V0 RIPS/Jump With Joey - Strictly For You, Vol. 2 [V0]/05 - Provocation.mp3 CRC32 hash (test run) : 11E1727B CRC32 hash : 11E1727B CRC32 hash (skip zero) : D2564FD9 AccurateRip signature : 4437DC91 ->Track not present in AccurateRip database. Statistics Read error : 0 Skipped (treated as error) : 0 Edge jitter error (maybe fixed) : 0 Atom jitter error (maybe fixed) : 0 Drift error (maybe fixed) : 0 Dropped bytes error (maybe fixed) : 0 Duplicated bytes error (maybe fixed) : 0 Inconsistency in error sectors : 0
Track 06 Filename : /Users/stevesierra/Music/ALL MUSIC LAPTOP/V0 RIPS/Jump With Joey - Strictly For You, Vol. 2 [V0]/06 - El Toro.flac /Users/stevesierra/Music/ALL MUSIC LAPTOP/V0 RIPS/Jump With Joey - Strictly For You, Vol. 2 [V0]/06 - El Toro.mp3 CRC32 hash (test run) : 9883AC9C CRC32 hash : 9883AC9C CRC32 hash (skip zero) : B59E48E2 AccurateRip signature : B77C56A1 ->Track not present in AccurateRip database. Statistics Read error : 0 Skipped (treated as error) : 0 Edge jitter error (maybe fixed) : 0 Atom jitter error (maybe fixed) : 0 Drift error (maybe fixed) : 0 Dropped bytes error (maybe fixed) : 0 Duplicated bytes error (maybe fixed) : 0 Inconsistency in error sectors : 0
Track 07 Filename : /Users/stevesierra/Music/ALL MUSIC LAPTOP/V0 RIPS/Jump With Joey - Strictly For You, Vol. 2 [V0]/07 - Ramoncito.flac /Users/stevesierra/Music/ALL MUSIC LAPTOP/V0 RIPS/Jump With Joey - Strictly For You, Vol. 2 [V0]/07 - Ramoncito.mp3 CRC32 hash (test run) : DEAE00A9 CRC32 hash : DEAE00A9 CRC32 hash (skip zero) : 04BFC3FB AccurateRip signature : A83DE255 ->Track not present in AccurateRip database. Statistics Read error : 0 Skipped (treated as error) : 0 Edge jitter error (maybe fixed) : 0 Atom jitter error (maybe fixed) : 0 Drift error (maybe fixed) : 0 Dropped bytes error (maybe fixed) : 0 Duplicated bytes error (maybe fixed) : 0 Inconsistency in error sectors : 0
Track 08 Filename : /Users/stevesierra/Music/ALL MUSIC LAPTOP/V0 RIPS/Jump With Joey - Strictly For You, Vol. 2 [V0]/08 - Look Away.flac /Users/stevesierra/Music/ALL MUSIC LAPTOP/V0 RIPS/Jump With Joey - Strictly For You, Vol. 2 [V0]/08 - Look Away.mp3 CRC32 hash (test run) : 272EA271 CRC32 hash : 272EA271 CRC32 hash (skip zero) : 15931D66 AccurateRip signature : 274E2433 ->Track not present in AccurateRip database. Statistics Read error : 0 Skipped (treated as error) : 0 Edge jitter error (maybe fixed) : 0 Atom jitter error (maybe fixed) : 0 Drift error (maybe fixed) : 0 Dropped bytes error (maybe fixed) : 0 Duplicated bytes error (maybe fixed) : 0 Inconsistency in error sectors : 0
Track 09 Filename : /Users/stevesierra/Music/ALL MUSIC LAPTOP/V0 RIPS/Jump With Joey - Strictly For You, Vol. 2 [V0]/09 - Un Poquito De Tu Amor.flac /Users/stevesierra/Music/ALL MUSIC LAPTOP/V0 RIPS/Jump With Joey - Strictly For You, Vol. 2 [V0]/09 - Un Poquito De Tu Amor.mp3 CRC32 hash (test run) : 9C8A548D CRC32 hash : 9C8A548D CRC32 hash (skip zero) : C10E8FD8 AccurateRip signature : 4B9D89DF ->Track not present in AccurateRip database. Statistics Read error : 0 Skipped (treated as error) : 0 Edge jitter error (maybe fixed) : 0 Atom jitter error (maybe fixed) : 0 Drift error (maybe fixed) : 0 Dropped bytes error (maybe fixed) : 0 Duplicated bytes error (maybe fixed) : 0 Inconsistency in error sectors : 0
Track 10 Filename : /Users/stevesierra/Music/ALL MUSIC LAPTOP/V0 RIPS/Jump With Joey - Strictly For You, Vol. 2 [V0]/10 - The Mood I'm In.flac /Users/stevesierra/Music/ALL MUSIC LAPTOP/V0 RIPS/Jump With Joey - Strictly For You, Vol. 2 [V0]/10 - The Mood I'm In.mp3 CRC32 hash (test run) : 7D9B8313 CRC32 hash : 7D9B8313 CRC32 hash (skip zero) : 9BDCE5F1 AccurateRip signature : EC477FB8 ->Track not present in AccurateRip database. Statistics Read error : 0 Skipped (treated as error) : 0 Edge jitter error (maybe fixed) : 0 Atom jitter error (maybe fixed) : 0 Drift error (maybe fixed) : 0 Dropped bytes error (maybe fixed) : 0 Duplicated bytes error (maybe fixed) : 0 Inconsistency in error sectors : 0
Track 11 Filename : /Users/stevesierra/Music/ALL MUSIC LAPTOP/V0 RIPS/Jump With Joey - Strictly For You, Vol. 2 [V0]/11 - Bridge View.flac /Users/stevesierra/Music/ALL MUSIC LAPTOP/V0 RIPS/Jump With Joey - Strictly For You, Vol. 2 [V0]/11 - Bridge View.mp3 CRC32 hash (test run) : E459CF6F CRC32 hash : E459CF6F CRC32 hash (skip zero) : D98AA97D AccurateRip signature : D96193D5 ->Track not present in AccurateRip database. Statistics Read error : 0 Skipped (treated as error) : 0 Edge jitter error (maybe fixed) : 0 Atom jitter error (maybe fixed) : 0 Drift error (maybe fixed) : 0 Dropped bytes error (maybe fixed) : 0 Duplicated bytes error (maybe fixed) : 0 Inconsistency in error sectors : 0
Track 12 Filename : /Users/stevesierra/Music/ALL MUSIC LAPTOP/V0 RIPS/Jump With Joey - Strictly For You, Vol. 2 [V0]/12 - Let Me in the Yard.flac /Users/stevesierra/Music/ALL MUSIC LAPTOP/V0 RIPS/Jump With Joey - Strictly For You, Vol. 2 [V0]/12 - Let Me in the Yard.mp3 CRC32 hash (test run) : 46523376 CRC32 hash : 46523376 CRC32 hash (skip zero) : 48A0D200 AccurateRip signature : 598860EB ->Track not present in AccurateRip database. Statistics Read error : 0 Skipped (treated as error) : 0 Edge jitter error (maybe fixed) : 0 Atom jitter error (maybe fixed) : 0 Drift error (maybe fixed) : 0 Dropped bytes error (maybe fixed) : 0 Duplicated bytes error (maybe fixed) : 0 Inconsistency in error sectors : 0
Track 13 Filename : /Users/stevesierra/Music/ALL MUSIC LAPTOP/V0 RIPS/Jump With Joey - Strictly For You, Vol. 2 [V0]/13 - James Bond.flac /Users/stevesierra/Music/ALL MUSIC LAPTOP/V0 RIPS/Jump With Joey - Strictly For You, Vol. 2 [V0]/13 - James Bond.mp3 CRC32 hash (test run) : 86FD3121 CRC32 hash : 86FD3121 CRC32 hash (skip zero) : B86D2CD0 AccurateRip signature : 1A2F57B2 ->Track not present in AccurateRip database. Statistics Read error : 0 Skipped (treated as error) : 0 Edge jitter error (maybe fixed) : 0 Atom jitter error (maybe fixed) : 0 Drift error (maybe fixed) : 0 Dropped bytes error (maybe fixed) : 0 Duplicated bytes error (maybe fixed) : 0 Inconsistency in error sectors : 0
No errors occurred
End of status report

1999 - Swingin' Ska Goes South of th' Border

Exact Audio Copy V0.99 prebeta 4 from 23. January 2008
EAC extraction logfile from 1. May 2009, 21:17
Jump With Joey / Swingin' Ska Goes South of th' Border
Used drive : TSSTcorpCD/DVDW SH-W162L Adapter: 0 ID: 1
Read mode : SecureUtilize accurate stream : YesDefeat audio cache : YesMake use of C2 pointers : No
Read offset correction : 6Overread into Lead-In and Lead-Out : NoFill up missing offset samples with silence : YesDelete leading and trailing silent blocks : NoNull samples used in CRC calculations : YesUsed interface : Native Win32 interface for Win NT & 2000Gap handling : Appended to previous track
Used output format : User Defined EncoderSelected bitrate : 768 kBit/sQuality : HighAdd ID3 tag : NoCommand line compressor : C:\Program Files\Exact Audio Copy\FLAC\FLAC.EXEAdditional command line options : -V -8 -T "artist=%a" -T "title=%t" -T "album=%g" -T "date=%y" -T "tracknumber=%n" -T "genre=%m" %s
TOC of the extracted CD
Track | Start | Length | Start sector | End sector --------------------------------------------------------- 1 | 0:00.00 | 3:40.35 | 0 | 16534 2 | 3:40.35 | 5:22.42 | 16535 | 40726 3 | 9:03.02 | 4:06.18 | 40727 | 59194 4 | 13:09.20 | 5:25.07 | 59195 | 83576 5 | 18:34.27 | 4:32.73 | 83577 | 104049 6 | 23:07.25 | 2:38.60 | 104050 | 115959 7 | 25:46.10 | 4:18.52 | 115960 | 135361 8 | 30:04.62 | 4:33.45 | 135362 | 155881 9 | 34:38.32 | 3:23.40 | 155882 | 171146 10 | 38:01.72 | 5:10.53 | 171147 | 194449 11 | 43:12.50 | 2:47.17 | 194450 | 206991 12 | 45:59.67 | 3:19.08 | 206992 | 221924
Track 1
Filename D:\EAC Rips\Jump With Joey - Swingin' Ska Goes South of th' Border [FLAC]\01 Nuevo Ritmo Ska-Chacha.wav
Pre-gap length 0:00:02.00
Peak level 86.9 % Track quality 99.9 % Test CRC 8192A568 Copy CRC 8192A568 Track not present in AccurateRip database Copy OK
Track 2
Filename D:\EAC Rips\Jump With Joey - Swingin' Ska Goes South of th' Border [FLAC]\02 TV Tray.wav
Peak level 92.0 % Track quality 100.0 % Test CRC E3E654DD Copy CRC E3E654DD Track not present in AccurateRip database Copy OK
Track 3
Filename D:\EAC Rips\Jump With Joey - Swingin' Ska Goes South of th' Border [FLAC]\03 Ska Train.wav
Peak level 92.3 % Track quality 100.0 % Test CRC 924563F9 Copy CRC 924563F9 Track not present in AccurateRip database Copy OK
Track 4
Filename D:\EAC Rips\Jump With Joey - Swingin' Ska Goes South of th' Border [FLAC]\04 Calafia.wav
Pre-gap length 0:00:01.53
Peak level 95.6 % Track quality 99.9 % Test CRC 06469E94 Copy CRC 06469E94 Track not present in AccurateRip database Copy OK
Track 5
Filename D:\EAC Rips\Jump With Joey - Swingin' Ska Goes South of th' Border [FLAC]\05 Rigor Mortis.wav
Peak level 94.9 % Track quality 100.0 % Test CRC 0C6DD425 Copy CRC 0C6DD425 Track not present in AccurateRip database Copy OK
Track 6
Filename D:\EAC Rips\Jump With Joey - Swingin' Ska Goes South of th' Border [FLAC]\06 Undecided.wav
Pre-gap length 0:00:01.10
Peak level 95.0 % Track quality 100.0 % Test CRC B2380BC9 Copy CRC B2380BC9 Track not present in AccurateRip database Copy OK
Track 7
Filename D:\EAC Rips\Jump With Joey - Swingin' Ska Goes South of th' Border [FLAC]\07 Fun at King King.wav
Peak level 93.3 % Track quality 100.0 % Test CRC A3278D94 Copy CRC A3278D94 Track not present in AccurateRip database Copy OK
Track 8
Filename D:\EAC Rips\Jump With Joey - Swingin' Ska Goes South of th' Border [FLAC]\08 Skood's Jazz Den.wav
Peak level 94.8 % Track quality 99.9 % Test CRC 0720430F Copy CRC 0720430F Track not present in AccurateRip database Copy OK
Track 9
Filename D:\EAC Rips\Jump With Joey - Swingin' Ska Goes South of th' Border [FLAC]\09 Dancin' Feet.wav
Peak level 96.1 % Track quality 99.9 % Test CRC 2F0003B4 Copy CRC 2F0003B4 Track not present in AccurateRip database Copy OK
Track 10
Filename D:\EAC Rips\Jump With Joey - Swingin' Ska Goes South of th' Border [FLAC]\10 Uncle Ratso.wav
Peak level 94.0 % Track quality 100.0 % Test CRC FAA0A920 Copy CRC FAA0A920 Track not present in AccurateRip database Copy OK
Track 11
Filename D:\EAC Rips\Jump With Joey - Swingin' Ska Goes South of th' Border [FLAC]\11 Dig That Rock.wav
Peak level 93.9 % Track quality 100.0 % Test CRC F9333F91 Copy CRC F9333F91 Track not present in AccurateRip database Copy OK
Track 12
Filename D:\EAC Rips\Jump With Joey - Swingin' Ska Goes South of th' Border [FLAC]\12 Skatrina.wav
Peak level 93.0 % Track quality 100.0 % Test CRC C6610DCD Copy CRC C6610DCD Track not present in AccurateRip database Copy OK
None of the tracks are present in the AccurateRip database
No errors occurred
End of status report
-


[islamvillage.com]_t_1991512.torrent
Торрент: Зарегистрирован ·  [ 2017-10-09 18:48 ] ·  6573ee399438ef86c8ea82decb9cff871d3e74a1

17 KB

Статус: проверено
Скачан: 0 раз
Размер: 684 MB
Оценка: 
(Голосов: 0)
Сказали спасибо: 0  Спасибо
Похожие темы
[Профиль]    [ЛС]
Показать сообщения:    
Ответить на тему

Текущее время: Сегодня 05:51

Часовой пояс: GMT + 7



Вы не можете начинать темы
Вы не можете отвечать на сообщения
Вы не можете редактировать свои сообщения
Вы не можете удалять свои сообщения
Вы не можете голосовать в опросах
Вы не можете прикреплять файлы к сообщениям
Вы можете скачивать файлы


Laxative | Thám Tử Lừng Danh Conan chap 827 | Traditional Waterstons Wick Sealing Wax Sticks + Free UK pp - red, gold etc