(Modern SkaMusic) Skavoovie And The Epitones - 3 Albums - 1995-1999, FLAC (tracks+.cue), lossless

Ответить на тему
Статистика раздачи [Обновить пиров]
Размер:  978 MB   |    Зарегистрирован:  1 год 3 месяца   |    Скачан:  0 раз

Полного источника не было: Никогда

 
   
 
 
 
Автор Сообщение

islamvillage.com

Создавать темы 09-Окт-2017 18:50

[Цитировать]

Skavoovie And The Epitones - 3 Albums- -Жанр: SkaMusic/Trad. Ska / Год выхода диска: 1995 - 1999 / Производитель диска: USA / Аудио кодек: FLAC (tracks+.cue) / Битрейт аудио: lossless-

1995 - Fat Footin'

01. Cat Juice (3:12)
02. Subway Joe (3:22)
03. Nut Monkey (2:59)
04. Parakeet (3:43)
05. Batman Theme (5:01)
06. Old Man of the Mountain (4:49)
07. Fat Soul (3:43)
08. Solomon Grundy (3:26)
09. Cornbread (3:42)
10. One Eyed Giant (2:43)
11. Elegy (3:11)
12. Sonic Boom (3:55)
13. Hi-Ball (4:03)
14. She Sure Can Cook (5:10)
15. Walking Home (4:16)

1997 - Ripe

01. Japanese Robot (1:45)
02. Blood Red Sky (3:22)
03. Aquaman (4:13)
04. Frog Spirit (2:52)
05. Bli-Blip (2:47)
06. Hob-Nobbin' (3:28)
07. Ts Tsa Cha (2:55)
08. Phobus (4:05)
09. Wildfire (3:11)
10. Latvian Lullaby (4:20)
11. Drunk (2:45)
12. The Plague (3:16)
13. Brother Beauford (2:30)
14. Riverboat (3:22)

1999 - The Growler

01. Boyo (3:25)
02. The Coffee Connection (3:58)
03. Soul Searcher (4:11)
04. Lucy (2:41)
05. Tiny Machines (3:28)
06. Sharp Teeth (3:51)
07. Texas Size (2:40)
08. Zombie Song (3:41)
09. Desert Gold (3:31)
10. Captain Future (4:44)
11. Foster's Ghost (Theme) (2:44)
12. Just Enough (3:28)
13. Salad Days (2:50)
14. Any Which Way (3:36)
--История группыamazon.com писал(а):Skavoovie and the Epitones were formed in Boston in 1992, and fuse third-wave ska-revival sounds with swing and big-band jazz. The ten-piece lineup features vocalist Ans Purin, guitarist Dan Neeley, keyboardist Eugene Cho, trumpeters Jesse Farber and Ben Lewis, alto/baritone saxophonist Jon Natchez, tenor saxophonist Ben Jaffe, euphonium player Joe Wensink, bassist Rob Jost, and drummer Ben Herson. After winning a Boston Music Award as Outstanding Ska Band, the group signed to Moon Ska and released their debut album, Fat Footin', in 1996. Ripe followed in 1997, and the group jumped to Shanachie for 1999's The Growler. ~ Steve Huey, All Music Guidearielpublicity.com писал(а):Most bands last only a little while. Most bands cash in on a fad and then drift away. Most bands come together because of ads in magazines, and change the line-up like it's Three's Company. But most bands aren't Skavoovie and the Epitones. This is a band with a history like no other.
When the 10 members of Skavoovie moved into a house together in September 1998, their friends called them crazy. But then again, that's what their friends had said seven years earlier when the 10 high school buddies would practice until 2 AM in a dingy garage, having fun and hoping maybe they'd get a couple of gigs. It was then that they came up with their name - a product of ten deviant high school minds. Their name wasn't normal, and it certainly wasn't normal when the kids in Skavoovie played their own prom and had completed their first national tour before even out of high school. By the time they had graduated, they had finished recording their first release, Fat Footin', which, in 1995, went on to become the fastest selling debut in Moon Ska history.
Although the next few years saw Skavoovie members scattered throughout the Northeast, they continued to make musical leaps and bounds along with their commutes. The result was Ripe (Moon Ska 1997), an album which proved that Skavoovie was not only one of the youngest bands around, but also one of the most talented. The potential that was evident in Fat Footin' had begun to blossom; Ripe displayed creativity and maturity advanced far beyond their years, and advanced far beyond the increasingly trite and repetitive ska scene. As the years have gone by, the individual members of Skavoovie have distinguished themselves in many contexts outside of the band, from weekly gigs at the legendary Birdland club in New York to recording sessions with Japanese pop stars. Numerous side-projects, too, have been spawned from Skavoovie; everything from hardcore groups to New Orleans marching bands to R&B projects to free improvised electronica - a range of styles that reveals the depth of talent and ambition in this band. Over the past year, the members of the group have moved in together and combined this talent and ambition with focus and determination - 6-hour a day rehearsals, over 100 shows including a month in Europe - and the results can be seen on their upcoming Shanachie release, The Growler. The Growler showcases the diversity and depth that this band can maintain while satisfying ska purists and new listeners alike. Over the years, many classifications of the Skavoovie sound have been attempted: "traditional ska," "swing-ska," "modern dance music," "improvisational big band groove," "jazz/ska," "punk music," "pop music." But none of these labels can fully capture the vibrant, dance-oriented, creative sound of this energetic band. Live, the band puts on an unbelievable show, moving from raging up-tempo tunes to mellow groovers, inciting what Billboard magazine described as "high-energy sweat-fests."
Amazingly, the average age of the band is a young 22 years - pretty amazing considering the accomplishments already behind them: over 400 shows, 12 national tours, one month-long European tour, 3 full-length albums (2 of them recorded at Boston's world famous Fort Apache Studio), a video which received tons of national airplay including a feature on MTV, and countless awards, including five prestigious Boston Music Award nominations, and a selection as one of the "Top Ten Unsigned Bands in Boston" (Boston Tab). Even more impressive than this list of accomplishments is the talent and exuberance that these ten young men bring to their music. Skavoovie is a large band, but every member composes for the group, and every member is a featured improviser on stage. Skavoovie will make you dance with their "infectious and boisterous" (CMJ) sound, and will also dazzle with their originality and musicality. One can only guess what the next unpredictable chapter will be in the history of this band, where we will find these ten bright young talents in a few years. But for now, be sure to check out this unique musical ensemble.
Skavoovie is:
Ben Herson (drums)
Ans Purins (vocals)
Ben Jaffe (tenor sax)
Eugene Cho (keyboards)
Jesse Farber (trumpet)
Joe Wensink (euphonium & trombone)
Ethan D'Ercole (guitar)
Ben Lewis (trumpet)
Jon Natchez (alto & bari sax)
Rob Jost (bass)
Here's what the press is saying about The Growler, out now on Shanachie Records ...
"Progresses far beyond anything Skavoovie has previously recorded... It ventures far beyond traditional ska incorporating elements of jazz and big band." - The Westword, Denver CO
"If you have an aversion to the notion of ska, let me put it in other words: danceable jazz. While not truly swing, Skavoovie do make even the most staid of music listeners do the groovy groove. There is a familiar upbeat jump, the shouting, uplifting lyrics and massive array of horns. The slamming backbeat keeps it all together ." - Eight Days, Albuquerque NM
"What separates Skavoovie and The Epitones from other ska bands is the fact that its range of influences creates a refreshingly original sound... Be warned because as soon as this album is inserted in the CD player, it may not leave it for a while, as it gets better and better with each listen." - State News, Lansing MI
"Whether it's the smooth organ sliding through the songs or the bright horns lighting up the song, the band always stays true to the beauty of ska and jazz, but takes the songs to new heights with their touch...They have a combination sure to win smiles. And still young, they only have room to get better , which is scary because they're already so tight." - In Music We Trust
"Ans Purins' quirky vocals and sounds shine...The music is top notch. This band is just getting started (average age 22) so there is no telling where these guys will go next." - The Final Word, New Orleans LA
-
Источник: Torrentc
-

EAC1995 - Fat Footin'

Exact Audio Copy V0.99 prebeta 4 from 23. January 2008
EAC extraction logfile from 8. July 2008, 15:57
Skavoovie & the Epitones / Fat Footin'
Used drive : MATSHITADVD-R UJ-857 Adapter: 0 ID: 1
Read mode : SecureUtilize accurate stream : YesDefeat audio cache : YesMake use of C2 pointers : No
Read offset correction : 102Overread into Lead-In and Lead-Out : NoFill up missing offset samples with silence : YesDelete leading and trailing silent blocks : NoNull samples used in CRC calculations : YesUsed interface : Native Win32 interface for Win NT & 2000Gap handling : Appended to previous track
Used output format : Internal WAV RoutinesSample format : 44.100 Hz; 16 Bit; Stereo
TOC of the extracted CD
Track | Start | Length | Start sector | End sector --------------------------------------------------------- 1 | 0:00.00 | 3:12.00 | 0 | 14399 2 | 3:12.00 | 3:22.05 | 14400 | 29554 3 | 6:34.05 | 2:59.07 | 29555 | 42986 4 | 9:33.12 | 3:43.35 | 42987 | 59746 5 | 13:16.47 | 5:01.03 | 59747 | 82324 6 | 18:17.50 | 4:49.22 | 82325 | 104021 7 | 23:06.72 | 3:43.00 | 104022 | 120746 8 | 26:49.72 | 3:25.38 | 120747 | 136159 9 | 30:15.35 | 3:42.32 | 136160 | 152841 10 | 33:57.67 | 2:42.42 | 152842 | 165033 11 | 36:40.34 | 3:11.03 | 165034 | 179361 12 | 39:51.37 | 3:54.55 | 179362 | 196966 13 | 43:46.17 | 4:03.23 | 196967 | 215214 14 | 47:49.40 | 5:09.69 | 215215 | 238458 15 | 52:59.34 | 4:16.23 | 238459 | 257681
Track 1
Filename Z:\Music\Projects\Skavoovie & the Epitones - Fat Footin'\01 - Cat Juice.wav
Pre-gap length 0:00:02.00
Peak level 97.1 % Track quality 100.0 % Test CRC 7958D240 Copy CRC 7958D240 Accurately ripped (confidence 1) [5613119F] Copy OK
Track 2
Filename Z:\Music\Projects\Skavoovie & the Epitones - Fat Footin'\02 - Subway Joe.wav
Peak level 98.9 % Track quality 100.0 % Test CRC FFBA924C Copy CRC FFBA924C Accurately ripped (confidence 1) [35ED50A4] Copy OK
Track 3
Filename Z:\Music\Projects\Skavoovie & the Epitones - Fat Footin'\03 - Nut Monkey.wav
Pre-gap length 0:00:01.20
Peak level 100.0 % Track quality 100.0 % Test CRC CF3EBC62 Copy CRC CF3EBC62 Accurately ripped (confidence 1) [A9DBCF84] Copy OK
Track 4
Filename Z:\Music\Projects\Skavoovie & the Epitones - Fat Footin'\04 - Parakeet.wav
Peak level 100.0 % Track quality 99.9 % Test CRC 64359DB0 Copy CRC 64359DB0 Accurately ripped (confidence 1) [B4BED3FA] Copy OK
Track 5
Filename Z:\Music\Projects\Skavoovie & the Epitones - Fat Footin'\05 - Batman Theme.wav
Pre-gap length 0:00:01.15
Peak level 100.0 % Track quality 100.0 % Test CRC B412B76F Copy CRC B412B76F Accurately ripped (confidence 1) [C48AE42A] Copy OK
Track 6
Filename Z:\Music\Projects\Skavoovie & the Epitones - Fat Footin'\06 - Old Man of the Mountain.wav
Pre-gap length 0:00:02.00
Peak level 98.7 % Track quality 100.0 % Test CRC FD5334C7 Copy CRC FD5334C7 Accurately ripped (confidence 1) [96EB5159] Copy OK
Track 7
Filename Z:\Music\Projects\Skavoovie & the Epitones - Fat Footin'\07 - Fat Soul.wav
Pre-gap length 0:00:02.32
Peak level 100.0 % Track quality 100.0 % Test CRC D72A217D Copy CRC D72A217D Accurately ripped (confidence 1) [B53EF7BD] Copy OK
Track 8
Filename Z:\Music\Projects\Skavoovie & the Epitones - Fat Footin'\08 - Solomon Gundy.wav
Pre-gap length 0:00:01.05
Peak level 100.0 % Track quality 100.0 % Test CRC AC88C43B Copy CRC AC88C43B Accurately ripped (confidence 1) [4E7A744C] Copy OK
Track 9
Filename Z:\Music\Projects\Skavoovie & the Epitones - Fat Footin'\09 - Cornbread.wav
Pre-gap length 0:00:01.23
Peak level 97.4 % Track quality 100.0 % Test CRC A61EB4AE Copy CRC A61EB4AE Accurately ripped (confidence 1) [D2E18AAF] Copy OK
Track 10
Filename Z:\Music\Projects\Skavoovie & the Epitones - Fat Footin'\10 - One Eyed Giant.wav
Peak level 100.0 % Track quality 100.0 % Test CRC 3A43D357 Copy CRC 3A43D357 Accurately ripped (confidence 1) [E46E51BD] Copy OK
Track 11
Filename Z:\Music\Projects\Skavoovie & the Epitones - Fat Footin'\11 - Elegy.wav
Pre-gap length 0:00:01.22
Peak level 92.4 % Track quality 100.0 % Test CRC 19D4916C Copy CRC 19D4916C Accurately ripped (confidence 1) [CA47EFE3] Copy OK
Track 12
Filename Z:\Music\Projects\Skavoovie & the Epitones - Fat Footin'\12 - Sonic Boom.wav
Peak level 97.9 % Track quality 100.0 % Test CRC 54867AB3 Copy CRC 54867AB3 Accurately ripped (confidence 1) [FA07E646] Copy OK
Track 13
Filename Z:\Music\Projects\Skavoovie & the Epitones - Fat Footin'\13 - Hi-Ball.wav
Pre-gap length 0:00:01.60
Peak level 100.0 % Track quality 100.0 % Test CRC 7A1D6B87 Copy CRC 7A1D6B87 Accurately ripped (confidence 1) [372603B9] Copy OK
Track 14
Filename Z:\Music\Projects\Skavoovie & the Epitones - Fat Footin'\14 - She Sure Can Cook.wav
Pre-gap length 0:00:01.23
Peak level 100.0 % Track quality 100.0 % Test CRC 990DB9BD Copy CRC 990DB9BD Accurately ripped (confidence 1) [87C473CE] Copy OK
Track 15
Filename Z:\Music\Projects\Skavoovie & the Epitones - Fat Footin'\15 - Walking Home.wav
Pre-gap length 0:00:02.00
Peak level 97.2 % Track quality 100.0 % Test CRC A2ABCF82 Copy CRC A2ABCF82 Accurately ripped (confidence 1) [AD551D57] Copy OK
All tracks accurately ripped
No errors occurred
End of status report
> flac -V -8 --delete-input-file *.wav
flac 1.2.1, Copyright (C) 2000,2001,2002,2003,2004,2005,2006,2007 Josh Coalsonflac comes with ABSOLUTELY NO WARRANTY. This is free software, and you arewelcome to redistribute it under certain conditions. Type `flac' for details.
01 - Cat Juice.wav: Verify OK, wrote 22171252 bytes, ratio=0.65502 - Subway Joe.wav: Verify OK, wrote 21226199 bytes, ratio=0.59503 - Nut Monkey.wav: Verify OK, wrote 20550360 bytes, ratio=0.65004 - Parakeet.wav: Verify OK, wrote 26033987 bytes, ratio=0.66005 - Batman Theme.wav: Verify OK, wrote 33415309 bytes, ratio=0.62906 - Old Man of the Mountain.wav: Verify OK, wrote 30171108 bytes, ratio=0.59107 - Fat Soul.wav: Verify OK, wrote 24497239 bytes, ratio=0.62308 - Solomon Gundy.wav: Verify OK, wrote 23780961 bytes, ratio=0.65609 - Cornbread.wav: Verify OK, wrote 20888760 bytes, ratio=0.53210 - One Eyed Giant.wav: Verify OK, wrote 18939809 bytes, ratio=0.66011 - Elegy.wav: Verify OK, wrote 21774182 bytes, ratio=0.64612 - Sonic Boom.wav: Verify OK, wrote 27357549 bytes, ratio=0.66113 - Hi-Ball.wav: Verify OK, wrote 23782547 bytes, ratio=0.55414 - She Sure Can Cook.wav: Verify OK, wrote 33283565 bytes, ratio=0.60915 - Walking Home.wav: Verify OK, wrote 23853292 bytes, ratio=0.528

1997 - Ripe

Exact Audio Copy V0.99 prebeta 3 from 28. July 2007
EAC extraction logfile from 19. May 2008, 21:18
Skavoovie and the Epitones / Ripe
Used drive : TSSTcorpCD/DVDW TS-L532R Adapter: 1 ID: 0
Read mode : SecureUtilize accurate stream : YesDefeat audio cache : YesMake use of C2 pointers : No
Read offset correction : 116Overread into Lead-In and Lead-Out : NoFill up missing offset samples with silence : YesDelete leading and trailing silent blocks : NoNull samples used in CRC calculations : NoUsed interface : Native Win32 interface for Win NT & 2000Gap handling : Appended to previous track
Used output format : User Defined EncoderSelected bitrate : 1024 kBit/sQuality : HighAdd ID3 tag : NoCommand line compressor : C:\Program Files\FLAC\flac.exeAdditional command line options : -4 -T "artist=%a" -T "title=%t" -T "album=%g" -T "date=%y" -T "tracknumber=%n" -T "genre=%m" %s
TOC of the extracted CD
Track | Start | Length | Start sector | End sector --------------------------------------------------------- 1 | 0:00.00 | 1:44.70 | 0 | 7869 2 | 1:44.70 | 3:21.62 | 7870 | 23006 3 | 5:06.57 | 4:12.45 | 23007 | 41951 4 | 9:19.27 | 2:51.63 | 41952 | 54839 5 | 12:11.15 | 2:46.45 | 54840 | 67334 6 | 14:57.60 | 3:27.57 | 67335 | 82916 7 | 18:25.42 | 2:54.40 | 82917 | 96006 8 | 21:20.07 | 4:04.43 | 96007 | 114349 9 | 25:24.50 | 3:10.47 | 114350 | 128646 10 | 28:35.22 | 4:20.33 | 128647 | 148179 11 | 32:55.55 | 2:45.10 | 148180 | 160564 12 | 35:40.65 | 3:16.00 | 160565 | 175264 13 | 38:56.65 | 2:29.52 | 175265 | 186491 14 | 41:26.42 | 3:21.48 | 186492 | 201614
Track 1
Filename C:\Documents and Settings\Owner\My Documents\Downloads\Ripe flac\01 Japanese Robot.wav
Pre-gap length 0:00:02.00
Peak level 100.0 % Track quality 99.8 % Test CRC F7C6F986 Copy CRC F7C6F986 Accurately ripped (confidence 2) [4E0151D5] Copy OK
Track 2
Filename C:\Documents and Settings\Owner\My Documents\Downloads\Ripe flac\02 Blood Red Sky.wav
Peak level 82.0 % Track quality 100.0 % Test CRC 2EBA2319 Copy CRC 2EBA2319 Accurately ripped (confidence 2) [77E185AE] Copy OK
Track 3
Filename C:\Documents and Settings\Owner\My Documents\Downloads\Ripe flac\03 Aquaman.wav
Pre-gap length 0:00:01.30
Peak level 93.0 % Track quality 100.0 % Test CRC 9FA27350 Copy CRC 9FA27350 Accurately ripped (confidence 2) [15452D4B] Copy OK
Track 4
Filename C:\Documents and Settings\Owner\My Documents\Downloads\Ripe flac\04 Frog Spirit.wav
Peak level 84.9 % Track quality 100.0 % Test CRC 8180B70D Copy CRC 8180B70D Accurately ripped (confidence 2) [5BE20070] Copy OK
Track 5
Filename C:\Documents and Settings\Owner\My Documents\Downloads\Ripe flac\05 Bli-Blip.wav
Peak level 94.7 % Track quality 100.0 % Test CRC 3EEB79D5 Copy CRC 3EEB79D5 Accurately ripped (confidence 2) [DDEF8159] Copy OK
Track 6
Filename C:\Documents and Settings\Owner\My Documents\Downloads\Ripe flac\06 Hob-Nobbin'.wav
Peak level 89.2 % Track quality 100.0 % Test CRC 8BB76E50 Copy CRC 8BB76E50 Accurately ripped (confidence 2) [B14FDCC8] Copy OK
Track 7
Filename C:\Documents and Settings\Owner\My Documents\Downloads\Ripe flac\07 Ts Tsa Cha.wav
Pre-gap length 0:00:02.57
Peak level 91.1 % Track quality 100.0 % Test CRC E19FC5D7 Copy CRC E19FC5D7 Accurately ripped (confidence 2) [A7E84A21] Copy OK
Track 8
Filename C:\Documents and Settings\Owner\My Documents\Downloads\Ripe flac\08 Phobus.wav
Peak level 95.6 % Track quality 100.0 % Test CRC 50658CBB Copy CRC 50658CBB Accurately ripped (confidence 2) [B6D72528] Copy OK
Track 9
Filename C:\Documents and Settings\Owner\My Documents\Downloads\Ripe flac\09 Wildfire.wav
Peak level 93.0 % Track quality 100.0 % Test CRC 1B243882 Copy CRC 1B243882 Accurately ripped (confidence 2) [8BBD535F] Copy OK
Track 10
Filename C:\Documents and Settings\Owner\My Documents\Downloads\Ripe flac\10 Latvian Lullaby.wav
Peak level 96.5 % Track quality 100.0 % Test CRC 44B4D047 Copy CRC 44B4D047 Accurately ripped (confidence 2) [23F1D822] Copy OK
Track 11
Filename C:\Documents and Settings\Owner\My Documents\Downloads\Ripe flac\11 Drunk.wav
Pre-gap length 0:00:03.40
Peak level 91.8 % Track quality 100.0 % Test CRC 347283EA Copy CRC 347283EA Track not present in AccurateRip database Copy OK
Track 12
Filename C:\Documents and Settings\Owner\My Documents\Downloads\Ripe flac\12 The Plague.wav
Pre-gap length 0:00:02.38
Peak level 98.2 % Track quality 100.0 % Test CRC 4D77AF31 Copy CRC 4D77AF31 Track not present in AccurateRip database Copy OK
Track 13
Filename C:\Documents and Settings\Owner\My Documents\Downloads\Ripe flac\13 Brother Beauford.wav
Peak level 91.9 % Track quality 100.0 % Test CRC 4E4C97AF Copy CRC 4E4C97AF Accurately ripped (confidence 2) [2B80C290] Copy OK
Track 14
Filename C:\Documents and Settings\Owner\My Documents\Downloads\Ripe flac\14 Riverboat.wav
Pre-gap length 0:00:01.26
Peak level 95.1 % Track quality 100.0 % Test CRC E7FA22AF Copy CRC E7FA22AF Accurately ripped (confidence 2) [9F7E8CC7] Copy OK
12 track(s) accurately ripped 2 track(s) not present in the AccurateRip database
Some tracks could not be verified as accurate
No errors occurred
End of status report

1999 - The Growler

Exact Audio Copy V0.99 prebeta 4 from 23. January 2008
EAC extraction logfile from 21. January 2009, 16:11
Skavoovie & The Epitones / The Growler
Used drive : SAMSUNG DVD-ROM SD-616T Adapter: 1 ID: 1
Read mode : SecureUtilize accurate stream : YesDefeat audio cache : YesMake use of C2 pointers : No
Read offset correction : 1182Overread into Lead-In and Lead-Out : NoFill up missing offset samples with silence : YesDelete leading and trailing silent blocks : NoNull samples used in CRC calculations : YesUsed interface : Native Win32 interface for Win NT & 2000Gap handling : Appended to previous track
Used output format : User Defined EncoderSelected bitrate : 192 kBit/sQuality : HighAdd ID3 tag : NoCommand line compressor : C:\Program Files\FLAC\flac.exeAdditional command line options : -V -8 -T "artist=%a" -T "title=%t" -T "album=%g" -T "date=%y" -T "tracknumber=%n" -T "genre=%m" %s
TOC of the extracted CD
Track | Start | Length | Start sector | End sector --------------------------------------------------------- 1 | 0:00.00 | 3:24.65 | 0 | 15364 2 | 3:24.65 | 3:58.10 | 15365 | 33224 3 | 7:23.00 | 4:11.32 | 33225 | 52081 4 | 11:34.32 | 2:40.55 | 52082 | 64136 5 | 14:15.12 | 3:27.58 | 64137 | 79719 6 | 17:42.70 | 3:51.30 | 79720 | 97074 7 | 21:34.25 | 2:39.55 | 97075 | 109054 8 | 24:14.05 | 3:40.45 | 109055 | 125599 9 | 27:54.50 | 3:30.42 | 125600 | 141391 10 | 31:25.17 | 4:43.45 | 141392 | 162661 11 | 36:08.62 | 2:44.10 | 162662 | 174971 12 | 38:52.72 | 3:28.03 | 174972 | 190574 13 | 42:21.00 | 2:50.35 | 190575 | 203359 14 | 45:11.35 | 3:35.72 | 203360 | 219556
Track 1
Filename C:\upload\Skavoovie and the Epitones - 1999 - The Growler - FLAC\01 Boyo.wav
Pre-gap length 0:00:02.00
Peak level 99.8 % Track quality 99.9 % Test CRC 13A4D84C Copy CRC 13A4D84C Track not present in AccurateRip database Copy OK
Track 2
Filename C:\upload\Skavoovie and the Epitones - 1999 - The Growler - FLAC\02 The Coffee Connection.wav
Pre-gap length 0:00:00.37
Peak level 99.8 % Track quality 100.0 % Test CRC 2E1DE771 Copy CRC 2E1DE771 Track not present in AccurateRip database Copy OK
Track 3
Filename C:\upload\Skavoovie and the Epitones - 1999 - The Growler - FLAC\03 Soul Searcher.wav
Pre-gap length 0:00:00.30
Peak level 99.8 % Track quality 100.0 % Test CRC 8D3C82C5 Copy CRC 8D3C82C5 Track not present in AccurateRip database Copy OK
Track 4
Filename C:\upload\Skavoovie and the Epitones - 1999 - The Growler - FLAC\04 Lucy.wav
Pre-gap length 0:00:00.29
Peak level 99.8 % Track quality 99.9 % Test CRC B0CC0777 Copy CRC B0CC0777 Track not present in AccurateRip database Copy OK
Track 5
Filename C:\upload\Skavoovie and the Epitones - 1999 - The Growler - FLAC\05 Tiny Machines.wav
Pre-gap length 0:00:00.26
Peak level 99.8 % Track quality 100.0 % Test CRC 6965FAAF Copy CRC 6965FAAF Track not present in AccurateRip database Copy OK
Track 6
Filename C:\upload\Skavoovie and the Epitones - 1999 - The Growler - FLAC\06 Sharp Teeth.wav
Pre-gap length 0:00:00.30
Peak level 99.8 % Track quality 100.0 % Test CRC 7E2433BF Copy CRC 7E2433BF Track not present in AccurateRip database Copy OK
Track 7
Filename C:\upload\Skavoovie and the Epitones - 1999 - The Growler - FLAC\07 Texas Size.wav
Pre-gap length 0:00:00.24
Peak level 99.8 % Track quality 99.9 % Test CRC 507A6A56 Copy CRC 507A6A56 Track not present in AccurateRip database Copy OK
Track 8
Filename C:\upload\Skavoovie and the Epitones - 1999 - The Growler - FLAC\08 Zombie Song.wav
Pre-gap length 0:00:00.37
Peak level 99.8 % Track quality 100.0 % Test CRC 7D501FC6 Copy CRC 7D501FC6 Track not present in AccurateRip database Copy OK
Track 9
Filename C:\upload\Skavoovie and the Epitones - 1999 - The Growler - FLAC\09 Desert Gold.wav
Pre-gap length 0:00:00.26
Peak level 99.8 % Track quality 100.0 % Test CRC F50D8DDE Copy CRC F50D8DDE Track not present in AccurateRip database Copy OK
Track 10
Filename C:\upload\Skavoovie and the Epitones - 1999 - The Growler - FLAC\10 Captain Future.wav
Pre-gap length 0:00:00.36
Peak level 99.8 % Track quality 99.9 % Test CRC B5DFE10F Copy CRC B5DFE10F Track not present in AccurateRip database Copy OK
Track 11
Filename C:\upload\Skavoovie and the Epitones - 1999 - The Growler - FLAC\11 Foster's Ghost (Theme).wav
Pre-gap length 0:00:00.20
Peak level 99.8 % Track quality 100.0 % Test CRC A58E23AC Copy CRC A58E23AC Track not present in AccurateRip database Copy OK
Track 12
Filename C:\upload\Skavoovie and the Epitones - 1999 - The Growler - FLAC\12 Just Enough.wav
Pre-gap length 0:00:00.40
Peak level 99.8 % Track quality 100.0 % Test CRC CE9B8800 Copy CRC CE9B8800 Track not present in AccurateRip database Copy OK
Track 13
Filename C:\upload\Skavoovie and the Epitones - 1999 - The Growler - FLAC\13 Salad Days.wav
Pre-gap length 0:00:00.33
Peak level 99.8 % Track quality 100.0 % Test CRC 702FF2A6 Copy CRC 702FF2A6 Track not present in AccurateRip database Copy OK
Track 14
Filename C:\upload\Skavoovie and the Epitones - 1999 - The Growler - FLAC\14 Any Which Way.wav
Pre-gap length 0:00:00.26
Peak level 99.8 % Track quality 100.0 % Test CRC 3502CC6C Copy CRC 3502CC6C Accurately ripped (confidence 2) [30BC11D8] Copy OK
1 track(s) accurately ripped13 track(s) not present in the AccurateRip database
Some tracks could not be verified as accurate
No errors occurred
End of status report
-


[islamvillage.com]_t_1998304.torrent
Торрент: Зарегистрирован ·  [ 2017-10-09 18:48 ] ·  1335a06c5eb322c99e70d7786f12781f989ec115

23 KB

Статус: проверено
Скачан: 0 раз
Размер: 978 MB
Оценка: 
(Голосов: 0)
Сказали спасибо: 0  Спасибо
Похожие темы
[Профиль]    [ЛС]
Показать сообщения:    
Ответить на тему

Текущее время: Сегодня 06:52

Часовой пояс: GMT + 7



Вы не можете начинать темы
Вы не можете отвечать на сообщения
Вы не можете редактировать свои сообщения
Вы не можете удалять свои сообщения
Вы не можете голосовать в опросах
Вы не можете прикреплять файлы к сообщениям
Вы можете скачивать файлы


Ralph Breaks the Internet 2018 Hindi Dubbed full movie download HDCAM 480p 300MB | Archivo 253 | Historyczne