(SkaMusic) Save Ferris - Modified - 1999, FLAC (tracks), lossless

Ответить на тему
Статистика раздачи [Обновить пиров]
Размер:  301 MB   |    Зарегистрирован:  1 год 3 месяца   |    Скачан:  0 раз

Полного источника не было: Никогда

 
   
 
 
 
Автор Сообщение

islamvillage.com

Создавать темы 09-Окт-2017 18:50

[Цитировать]

Save Ferris - Modified

Жанр: SkaMusic
Год выхода: 1999
Формат файла: FLAC (tracks)
Битрейт аудио: lossless
Трэклист
:
01. Turn It Up (3:03)
02. The Only Way To Be (3:18)
03. I'm Not Cryin' For You (4:03)
04. Your Friend (3:42)
05. No Love (4:49)
06. Angry Situation (3:38)
07. What You See Is What You Get (3:18)
08. One More Try (1:06)
09. Mistaken (3:24)
10. Holding On (3:26)
11. Let Me In (12:03)

Log EAC

Exact Audio Copy V0.99 prebeta 3 from 28. July 2007
EAC extraction logfile from 24. December 2007, 22:26
Save Ferris / Modified
Used drive : PLEXTOR DVDR PX-740A Adapter: 1 ID: 1
Read mode : Secure
Utilize accurate stream : Yes
Defeat audio cache : Yes
Make use of C2 pointers : No
Read offset correction : 618
Overread into Lead-In and Lead-Out : No
Fill up missing offset samples with silence : Yes
Delete leading and trailing silent blocks : No
Null samples used in CRC calculations : No
Used interface : Native Win32 interface for Win NT & 2000
Used output format : User Defined Encoder
Selected bitrate : 768 kBit/s
Quality : High
Add ID3 tag : No
Command line compressor : C:\Program Files\Exact Audio Copy\FLAC\FLAC.EXE
Additional command line options : -8 -A tukey(0.25) -A gauss(0.1875) -b 4096 -V -T "artist=%a" -T "title=%t" -T "album=%g" -T "date=%y" -T "tracknumber=%n" -T "genre=%m" %s --sector-align
TOC of the extracted CD
Track | Start | Length | Start sector | End sector
---------------------------------------------------------
1 | 0:00.00 | 3:03.00 | 0 | 13724
2 | 3:03.00 | 3:18.12 | 13725 | 28586
3 | 6:21.12 | 4:03.08 | 28587 | 46819
4 | 10:24.20 | 3:42.12 | 46820 | 63481
5 | 14:06.32 | 4:48.55 | 63482 | 85136
6 | 18:55.12 | 3:38.05 | 85137 | 101491
7 | 22:33.17 | 3:18.10 | 101492 | 116351
8 | 25:51.27 | 1:06.28 | 116352 | 121329
9 | 26:57.55 | 3:24.22 | 121330 | 136651
10 | 30:22.02 | 3:26.10 | 136652 | 152111
11 | 33:48.12 | 12:02.58 | 152112 | 206319
Range status and errors
Selected range
Filename F:\ripwd\Save Ferris - Modified.wav
Peak level 99.8 %
Range quality 100.0 %
Test CRC 7EC1D48B
Copy CRC 7EC1D48B
Copy OK
No errors occurred
AccurateRip summary
Track 1 accurately ripped (confidence 2) [9A7D82C3]
Track 2 accurately ripped (confidence 2) [FE071C02]
Track 3 accurately ripped (confidence 2) [F869596A]
Track 4 accurately ripped (confidence 2) [5182582C]
Track 5 accurately ripped (confidence 2) [9CD7A929]
Track 6 accurately ripped (confidence 2) [7CA717C0]
Track 7 accurately ripped (confidence 2) [C0A65F20]
Track 8 accurately ripped (confidence 2) [0EA77CF0]
Track 9 accurately ripped (confidence 2) [1A1D0807]
Track 10 accurately ripped (confidence 2) [2B27D5AA]
Track 11 accurately ripped (confidence 2) [039B8595]
All tracks accurately ripped
End of status report
------------------------------------------------------------
Exact Audio Copy V0.99 prebeta 3 from 28. July 2007
EAC extraction logfile from 24. December 2007, 22:51
Save Ferris / Modified
Used drive : PLEXTOR DVDR PX-740A Adapter: 1 ID: 1
Read mode : Secure
Utilize accurate stream : Yes
Defeat audio cache : Yes
Make use of C2 pointers : No
Read offset correction : 618
Overread into Lead-In and Lead-Out : No
Fill up missing offset samples with silence : Yes
Delete leading and trailing silent blocks : No
Null samples used in CRC calculations : No
Used interface : Native Win32 interface for Win NT & 2000
Gap handling : Not detected, thus appended to previous track
Used output format : User Defined Encoder
Selected bitrate : 768 kBit/s
Quality : High
Add ID3 tag : No
Command line compressor : C:\Program Files\Exact Audio Copy\FLAC\FLAC.EXE
Additional command line options : -8 -A tukey(0.25) -A gauss(0.1875) -b 4096 -V -T "artist=%a" -T "title=%t" -T "album=%g" -T "date=%y" -T "tracknumber=%n" -T "genre=%m" %s --sector-align
TOC of the extracted CD
Track | Start | Length | Start sector | End sector
---------------------------------------------------------
1 | 0:00.00 | 3:03.00 | 0 | 13724
2 | 3:03.00 | 3:18.12 | 13725 | 28586
3 | 6:21.12 | 4:03.08 | 28587 | 46819
4 | 10:24.20 | 3:42.12 | 46820 | 63481
5 | 14:06.32 | 4:48.55 | 63482 | 85136
6 | 18:55.12 | 3:38.05 | 85137 | 101491
7 | 22:33.17 | 3:18.10 | 101492 | 116351
8 | 25:51.27 | 1:06.28 | 116352 | 121329
9 | 26:57.55 | 3:24.22 | 121330 | 136651
10 | 30:22.02 | 3:26.10 | 136652 | 152111
11 | 33:48.12 | 12:02.58 | 152112 | 206319
Track 1
Filename F:\ripwd\Save Ferris - 01 - Turn It Up.wav
Peak level 99.8 %
Track quality 100.0 %
Test CRC B0D1B347
Copy CRC B0D1B347
Accurately ripped (confidence 2) [9A7D82C3]
Copy OK
Track 2
Filename F:\ripwd\Save Ferris - 02 - The Only Way To Be.wav
Peak level 99.8 %
Track quality 100.0 %
Test CRC 277E4215
Copy CRC 277E4215
Accurately ripped (confidence 2) [FE071C02]
Copy OK
Track 3
Filename F:\ripwd\Save Ferris - 03 - I'm Not Cryin' For You.wav
Peak level 99.8 %
Track quality 100.0 %
Test CRC BCDAE761
Copy CRC BCDAE761
Accurately ripped (confidence 2) [F869596A]
Copy OK
Track 4
Filename F:\ripwd\Save Ferris - 04 - Your Friend.wav
Peak level 99.8 %
Track quality 99.9 %
Test CRC 1B5D81AC
Copy CRC 1B5D81AC
Accurately ripped (confidence 2) [5182582C]
Copy OK
Track 5
Filename F:\ripwd\Save Ferris - 05 - No Love.wav
Peak level 99.8 %
Track quality 100.0 %
Test CRC F28EF9BB
Copy CRC F28EF9BB
Accurately ripped (confidence 2) [9CD7A929]
Copy OK
Track 6
Filename F:\ripwd\Save Ferris - 06 - Angry Situation.wav
Peak level 99.8 %
Track quality 100.0 %
Test CRC 4214C75D
Copy CRC 4214C75D
Accurately ripped (confidence 2) [7CA717C0]
Copy OK
Track 7
Filename F:\ripwd\Save Ferris - 07 - What You See Is What You Get.wav
Peak level 99.8 %
Track quality 100.0 %
Test CRC 1B28B6A5
Copy CRC 1B28B6A5
Accurately ripped (confidence 2) [C0A65F20]
Copy OK
Track 8
Filename F:\ripwd\Save Ferris - 08 - One More Try.wav
Peak level 98.9 %
Track quality 100.0 %
Test CRC D160E44B
Copy CRC D160E44B
Accurately ripped (confidence 2) [0EA77CF0]
Copy OK
Track 9
Filename F:\ripwd\Save Ferris - 09 - Mistaken.wav
Peak level 99.8 %
Track quality 100.0 %
Test CRC 08309730
Copy CRC 08309730
Accurately ripped (confidence 2) [1A1D0807]
Copy OK
Track 10
Filename F:\ripwd\Save Ferris - 10 - Holding On.wav
Peak level 99.2 %
Track quality 100.0 %
Test CRC 069B8F43
Copy CRC 069B8F43
Accurately ripped (confidence 2) [2B27D5AA]
Copy OK
Track 11
Filename F:\ripwd\Save Ferris - 11 - Let Me In.wav
Peak level 99.8 %
Track quality 100.0 %
Test CRC EF9DB471
Copy CRC EF9DB471
Accurately ripped (confidence 2) [039B8595]
Copy OK
All tracks accurately ripped
No errors occurred
End of status report
Скачано с what.cd, ничего не изменял в тегах и остальном. Приятного прослушивания!
Другая раздача этой группы:

Save Ferris - Introducing Save Ferris - 1996, FLAC (tracks+.cue), lossless
Save Ferris - It Means Everything - 1997, FLAC (image + .cue), lossless


[islamvillage.com]_t_933440.torrent
Торрент: Зарегистрирован ·  [ 2017-10-09 18:48 ] ·  e696bb1f59659fb199fe5472a94a374799e7db48

13 KB

Статус: проверено
Скачан: 0 раз
Размер: 301 MB
Оценка: 
(Голосов: 0)
Сказали спасибо: 0  Спасибо
Похожие темы
[Профиль]    [ЛС]
Показать сообщения:    
Ответить на тему

Текущее время: Сегодня 05:51

Часовой пояс: GMT + 7



Вы не можете начинать темы
Вы не можете отвечать на сообщения
Вы не можете редактировать свои сообщения
Вы не можете удалять свои сообщения
Вы не можете голосовать в опросах
Вы не можете прикреплять файлы к сообщениям
Вы можете скачивать файлы


Signal Strength Premium APK Free | Educational and Career Goals Essay Examples | Werkzeugkoffer 94 tlg Knarrenkasten Nusskasten Ratschenkasten Steckschlüsselsatz