(SkaMusic) Dance Hall Crashers - Lockjaw - 1995, FLAC (tracks+.cue), lossless

Ответить на тему
Статистика раздачи [Обновить пиров]
Размер:  297 MB   |    Зарегистрирован:  1 год 3 месяца   |    Скачан:  0 раз

Полного источника не было: Никогда

 
   
 
 
 
Автор Сообщение

islamvillage.com

Создавать темы 09-Окт-2017 18:51

[Цитировать]

Dance Hall Crashers - Lockjaw
Жанр: SkaMusic
Год выхода диска: 1995
Аудио кодек: FLAC
Тип рипа: tracks+.cue
Битрейт аудио: lossless

Трэклист:
01. Shelley (3:11)
02. Don't Wanna Behave (2:24)
03. Queen for a Day (2:50)
04. Flyin' (3:13)
05. Good for Nothin' (3:21)
06. Buried Alive (2:24)
07. Sticky (3:03)
08. Too Late (2:39)
09. Go (3:12)
10. Enough (3:00)
11. Pictures (2:30)
12. Day Job (3:35)
13. So Sue Us (3:19)
14. We Owe (2:21)

Log EAC

Exact Audio Copy V0.99 prebeta 4 from 23. January 2008
EAC extraction logfile from 18. June 2008, 20:09
Dance Hall Crashers / Lockjaw
Used drive : LITE-ON COMBO SOHC-4836K Adapter: 2 ID: 0
Read mode : Secure
Utilize accurate stream : Yes
Defeat audio cache : Yes
Make use of C2 pointers : No
Read offset correction : 6
Overread into Lead-In and Lead-Out : No
Fill up missing offset samples with silence : Yes
Delete leading and trailing silent blocks : No
Null samples used in CRC calculations : No
Used interface : Native Win32 interface for Win NT & 2000
Gap handling : Appended to previous track
Used output format : User Defined Encoder
Selected bitrate : 768 kBit/s
Quality : High
Add ID3 tag : No
Command line compressor : C:\Program Files\Exact Audio Copy\FLAC\FLAC.EXE
Additional command line options : -V -8 -T "artist=%a" -T "title=%t" -T "album=%g" -T "date=%y" -T "tracknumber=%n" -T "genre=%m" %s
TOC of the extracted CD
Track | Start | Length | Start sector | End sector
---------------------------------------------------------
1 | 0:00.00 | 3:10.62 | 0 | 14311
2 | 3:10.62 | 2:24.25 | 14312 | 25136
3 | 5:35.12 | 2:49.43 | 25137 | 37854
4 | 8:24.55 | 3:13.32 | 37855 | 52361
5 | 11:38.12 | 3:20.40 | 52362 | 67401
6 | 14:58.52 | 2:24.20 | 67402 | 78221
7 | 17:22.72 | 3:02.53 | 78222 | 91924
8 | 20:25.50 | 2:38.72 | 91925 | 103846
9 | 23:04.47 | 3:11.43 | 103847 | 118214
10 | 26:16.15 | 2:59.60 | 118215 | 131699
11 | 29:16.00 | 2:29.55 | 131700 | 142929
12 | 31:45.55 | 3:34.65 | 142930 | 159044
13 | 35:20.45 | 3:18.67 | 159045 | 173961
14 | 38:39.37 | 2:21.30 | 173962 | 184566
Track 1
Filename C:\Documents and Settings\Nursey-Bush\EACrips\Dance Hall Crashers - 1995 - Lockjaw\01 - Shelley.wav
Pre-gap length 0:00:02.00
Peak level 100.0 %
Track quality 99.9 %
Test CRC 1B4EFE4D
Copy CRC 1B4EFE4D
Accurately ripped (confidence 8) [B1C4BB0C]
Copy OK
Track 2
Filename C:\Documents and Settings\Nursey-Bush\EACrips\Dance Hall Crashers - 1995 - Lockjaw\02 - Don't Wanna Behave.wav
Peak level 100.0 %
Track quality 100.0 %
Test CRC FCEF8FFA
Copy CRC FCEF8FFA
Accurately ripped (confidence 9) [654313BC]
Copy OK
Track 3
Filename C:\Documents and Settings\Nursey-Bush\EACrips\Dance Hall Crashers - 1995 - Lockjaw\03 - Queen for a Day.wav
Pre-gap length 0:00:00.55
Peak level 100.0 %
Track quality 100.0 %
Test CRC A6D8D038
Copy CRC A6D8D038
Accurately ripped (confidence 8) [F77CFD62]
Copy OK
Track 4
Filename C:\Documents and Settings\Nursey-Bush\EACrips\Dance Hall Crashers - 1995 - Lockjaw\04 - Flyin'.wav
Peak level 100.0 %
Track quality 100.0 %
Test CRC B8255F51
Copy CRC B8255F51
Accurately ripped (confidence 9) [546AC6B0]
Copy OK
Track 5
Filename C:\Documents and Settings\Nursey-Bush\EACrips\Dance Hall Crashers - 1995 - Lockjaw\05 - Good for Nothin'.wav
Pre-gap length 0:00:00.72
Peak level 100.0 %
Track quality 100.0 %
Test CRC CBE97EB7
Copy CRC CBE97EB7
Accurately ripped (confidence 9) [EB9E2748]
Copy OK
Track 6
Filename C:\Documents and Settings\Nursey-Bush\EACrips\Dance Hall Crashers - 1995 - Lockjaw\06 - Buried Alive.wav
Peak level 100.0 %
Track quality 100.0 %
Test CRC DA9E8633
Copy CRC DA9E8633
Accurately ripped (confidence 9) [3DF0E07D]
Copy OK
Track 7
Filename C:\Documents and Settings\Nursey-Bush\EACrips\Dance Hall Crashers - 1995 - Lockjaw\07 - Sticky.wav
Peak level 100.0 %
Track quality 100.0 %
Test CRC AFEE5F86
Copy CRC AFEE5F86
Accurately ripped (confidence 8) [CC1B12F8]
Copy OK
Track 8
Filename C:\Documents and Settings\Nursey-Bush\EACrips\Dance Hall Crashers - 1995 - Lockjaw\08 - Too Late.wav
Peak level 100.0 %
Track quality 100.0 %
Test CRC 1FB70A3C
Copy CRC 1FB70A3C
Accurately ripped (confidence 9) [BD239A24]
Copy OK
Track 9
Filename C:\Documents and Settings\Nursey-Bush\EACrips\Dance Hall Crashers - 1995 - Lockjaw\09 - Go.wav
Pre-gap length 0:00:00.57
Peak level 100.0 %
Track quality 99.9 %
Test CRC 027DD862
Copy CRC 027DD862
Accurately ripped (confidence 9) [501FBA37]
Copy OK
Track 10
Filename C:\Documents and Settings\Nursey-Bush\EACrips\Dance Hall Crashers - 1995 - Lockjaw\10 - Enough.wav
Pre-gap length 0:00:01.13
Peak level 100.0 %
Track quality 100.0 %
Test CRC 4BC44C97
Copy CRC 4BC44C97
Accurately ripped (confidence 9) [DAAA3A65]
Copy OK
Track 11
Filename C:\Documents and Settings\Nursey-Bush\EACrips\Dance Hall Crashers - 1995 - Lockjaw\11 - Pictures.wav
Pre-gap length 0:00:00.30
Peak level 100.0 %
Track quality 99.9 %
Test CRC A411C94B
Copy CRC A411C94B
Accurately ripped (confidence 9) [408BFB9A]
Copy OK
Track 12
Filename C:\Documents and Settings\Nursey-Bush\EACrips\Dance Hall Crashers - 1995 - Lockjaw\12 - Day Job.wav
Pre-gap length 0:00:01.00
Peak level 100.0 %
Track quality 99.9 %
Test CRC E6A2F07C
Copy CRC E6A2F07C
Accurately ripped (confidence 9) [443362D9]
Copy OK
Track 13
Filename C:\Documents and Settings\Nursey-Bush\EACrips\Dance Hall Crashers - 1995 - Lockjaw\13 - So Sue Us.wav
Peak level 100.0 %
Track quality 99.9 %
Test CRC 0D93235A
Copy CRC 0D93235A
Accurately ripped (confidence 8) [61AD92E0]
Copy OK
Track 14
Filename C:\Documents and Settings\Nursey-Bush\EACrips\Dance Hall Crashers - 1995 - Lockjaw\14 - We Owe.wav
Peak level 100.0 %
Track quality 100.0 %
Test CRC 36707691
Copy CRC 36707691
Accurately ripped (confidence 8) [FB9AB975]
Copy OK
All tracks accurately ripped
No errors occurred
End of status report
:

Приятного прослушивания!


[islamvillage.com]_t_962151.torrent
Торрент: Зарегистрирован ·  [ 2017-10-09 18:48 ] ·  8b5973821e73383d8951abffd8fc0284dbdefc9b

13 KB

Статус: проверено
Скачан: 0 раз
Размер: 297 MB
Оценка: 
(Голосов: 0)
Сказали спасибо: 0  Спасибо
Похожие темы
[Профиль]    [ЛС]
Показать сообщения:    
Ответить на тему

Текущее время: Сегодня 06:50

Часовой пояс: GMT + 7



Вы не можете начинать темы
Вы не можете отвечать на сообщения
Вы не можете редактировать свои сообщения
Вы не можете удалять свои сообщения
Вы не можете голосовать в опросах
Вы не можете прикреплять файлы к сообщениям
Вы можете скачивать файлы


Nijiiro Prism Girl | Only Fools And Horses | Jon Hamm