(SkaMusic) Gangster Fun - 3 albums - 1992 - 2000, FLAC (tracks+.cue), lossless

Ответить на тему
Статистика раздачи [Обновить пиров]
Размер:  748 MB   |    Зарегистрирован:  1 год 3 месяца   |    Скачан:  0 раз

Полного источника не было: Никогда

 
   
 
 
 
Автор Сообщение

islamvillage.com

Создавать темы 09-Окт-2017 18:51

[Цитировать]

Gangster Fun - 3 albums- -Жанр: SkaMusic Год выхода диска: 1992 - 2000 Страна: USA Аудио кодек: FLAC Тип рипа: tracks+.cue Битрейт аудио: lossless Продолжительность: 02:03:51-

1992 - Time Flies When You're Gangster Fun

01. I Wanna Be Like You
02. I'd Buy a Gun
03. Stop the Presses
04. Nutritious
05. Periwinkle Blues
06. Bank of Love )
07. Minnimal Stress
08. Brown Paper Bag
09. Just My Imagination
10. Don't Lay About
11. Fat Lady Skank!

1998 - Pure Sound, Pure Hogwash, Pure Amphetamines

01. Blue Serge Suit (Wiuth a Belt in the Back)
02. Date with Density
03. Night of the Living Stove
04. Skarabia
05. California
06. Oh Paranoia
07. Butt Down Under
08. Dirty Love (Frank Zappa Cover)
09. Someone To Love Me (For My Money)
10. Pure Sound, Pure Hogwash, Pure Amphetamines
11. We Can Still Rock & Roll

2000 - Graphospasm

01. You're So Lame
02. 'Til the Weekend Comes
03. I'm Wearing Your Clothes
04. What's It Take to Turn You On?
05. Clean Freak
06. Tyrone
07. Rushmore
08. Mr. Mildew
09. Desperate Man
10. Anti-Social Disease
11. Don't Put Your Hand on My Shoulder
12. Half-Wit
13. untitled
Доп. информация:-

EAC1992 - Time Flies When You're Gangster Fun

Exact Audio Copy V0.99 prebeta 4 from 23. January 2008
EAC extraction logfile from 8. July 2008, 17:47
Gangster Fun / Time Flies When You're Gangster Fun
Used drive : MATSHITADVD-R UJ-857 Adapter: 0 ID: 1
Read mode : SecureUtilize accurate stream : YesDefeat audio cache : YesMake use of C2 pointers : No
Read offset correction : 102Overread into Lead-In and Lead-Out : NoFill up missing offset samples with silence : YesDelete leading and trailing silent blocks : NoNull samples used in CRC calculations : YesUsed interface : Native Win32 interface for Win NT & 2000Gap handling : Appended to previous track
Used output format : Internal WAV RoutinesSample format : 44.100 Hz; 16 Bit; Stereo
TOC of the extracted CD
Track | Start | Length | Start sector | End sector --------------------------------------------------------- 1 | 0:00.00 | 2:39.07 | 0 | 11931 2 | 2:39.07 | 2:57.10 | 11932 | 25216 3 | 5:36.17 | 2:48.00 | 25217 | 37816 4 | 8:24.17 | 1:55.63 | 37817 | 46504 5 | 10:20.05 | 4:57.02 | 46505 | 68781 6 | 15:17.07 | 2:53.25 | 68782 | 81781 7 | 18:10.32 | 2:26.43 | 81782 | 92774 8 | 20:37.00 | 4:11.65 | 92775 | 111664 9 | 24:48.65 | 2:40.65 | 111665 | 123729 10 | 27:29.55 | 3:07.40 | 123730 | 137794 11 | 30:37.20 | 14:18.15 | 137795 | 202159
Track 1
Filename Z:\Music\Projects\Gangster Fun - Time Flies When You're Gangster Fun\01 - I Wanna Be Like You.wav
Pre-gap length 0:00:02.00
Peak level 100.0 % Track quality 100.0 % Test CRC D7C2A3E8 Copy CRC D7C2A3E8 Accurately ripped (confidence 1) [0665AF98] Copy OK
Track 2
Filename Z:\Music\Projects\Gangster Fun - Time Flies When You're Gangster Fun\02 - I'd Buy a Gun.wav
Pre-gap length 0:00:01.25
Peak level 100.0 % Track quality 100.0 % Test CRC 8D44E87F Copy CRC 8D44E87F Accurately ripped (confidence 1) [825748EB] Copy OK
Track 3
Filename Z:\Music\Projects\Gangster Fun - Time Flies When You're Gangster Fun\03 - Stop the Presses.wav
Peak level 100.0 % Track quality 99.9 % Test CRC 96909011 Copy CRC 96909011 Accurately ripped (confidence 1) [71F0B175] Copy OK
Track 4
Filename Z:\Music\Projects\Gangster Fun - Time Flies When You're Gangster Fun\04 - Nutritious.wav
Peak level 100.0 % Track quality 100.0 % Test CRC 324E25BD Copy CRC 324E25BD Accurately ripped (confidence 1) [8821693E] Copy OK
Track 5
Filename Z:\Music\Projects\Gangster Fun - Time Flies When You're Gangster Fun\05 - Periwinkle Blues.wav
Peak level 83.0 % Track quality 100.0 % Test CRC 201FB999 Copy CRC 201FB999 Accurately ripped (confidence 1) [0C783F88] Copy OK
Track 6
Filename Z:\Music\Projects\Gangster Fun - Time Flies When You're Gangster Fun\06 - Bank of Love.wav
Pre-gap length 0:00:00.25
Peak level 100.0 % Track quality 99.9 % Test CRC 777BB394 Copy CRC 777BB394 Accurately ripped (confidence 1) [4505161A] Copy OK
Track 7
Filename Z:\Music\Projects\Gangster Fun - Time Flies When You're Gangster Fun\07 - Minnimal Stress.wav
Peak level 100.0 % Track quality 100.0 % Test CRC B5776CB6 Copy CRC B5776CB6 Accurately ripped (confidence 1) [47B23BF0] Copy OK
Track 8
Filename Z:\Music\Projects\Gangster Fun - Time Flies When You're Gangster Fun\08 - Brown Paper Bag.wav
Peak level 100.0 % Track quality 100.0 % Test CRC 1ADAC5D5 Copy CRC 1ADAC5D5 Accurately ripped (confidence 1) [FBA88242] Copy OK
Track 9
Filename Z:\Music\Projects\Gangster Fun - Time Flies When You're Gangster Fun\09 - Just My Imagination.wav
Peak level 100.0 % Track quality 100.0 % Test CRC BB420EDF Copy CRC BB420EDF Accurately ripped (confidence 1) [4E4FA4A7] Copy OK
Track 10
Filename Z:\Music\Projects\Gangster Fun - Time Flies When You're Gangster Fun\10 - Don't Lay About.wav
Peak level 100.0 % Track quality 100.0 % Test CRC 0E0E00F1 Copy CRC 0E0E00F1 Accurately ripped (confidence 1) [B5E54EA7] Copy OK
Track 11
Filename Z:\Music\Projects\Gangster Fun - Time Flies When You're Gangster Fun\11 - Fat Lady Skank!.wav
Peak level 100.0 % Track quality 100.0 % Test CRC 0B3843E9 Copy CRC 0B3843E9 Accurately ripped (confidence 1) [79EB9D84] Copy OK
All tracks accurately ripped
No errors occurred
End of status report

1998 - Pure Sound, Pure Hogwash, Pure Amphetamines

Exact Audio Copy V0.99 prebeta 4 from 23. January 2008
EAC extraction logfile from 27. December 2008, 21:14
Gangster Fun / Pure Sound, Pure Hogwash, Pure Amphetamines
Used drive : HL-DT-STDVD-RAM GH22NP20 Adapter: 3 ID: 0
Read mode : SecureUtilize accurate stream : YesDefeat audio cache : YesMake use of C2 pointers : No
Read offset correction : 102Overread into Lead-In and Lead-Out : NoFill up missing offset samples with silence : YesDelete leading and trailing silent blocks : NoNull samples used in CRC calculations : YesUsed interface : Native Win32 interface for Win NT & 2000Gap handling : Appended to previous track
Used output format : Internal WAV RoutinesSample format : 44.100 Hz; 16 Bit; Stereo
TOC of the extracted CD
Track | Start | Length | Start sector | End sector---------------------------------------------------------1 | 0:00.00 | 2:14.74 | 0 | 101232 | 2:14.74 | 2:58.57 | 10124 | 235303 | 5:13.56 | 2:28.01 | 23531 | 346314 | 7:41.57 | 3:16.19 | 34632 | 493505 | 10:58.01 | 3:19.10 | 49351 | 642856 | 14:17.11 | 2:54.59 | 64286 | 773947 | 17:11.70 | 3:55.01 | 77395 | 950208 | 21:06.71 | 1:52.06 | 95021 | 1034269 | 22:59.02 | 3:03.33 | 103427 | 11718410 | 26:02.35 | 7:31.48 | 117185 | 15105711 | 33:34.08 | 4:06.33 | 151058 | 169540
Track 1
Filename F:\BitTorrent\Gangster Fun - Pure Sound, Pure Hogwash, Pure Amphetamines\01 - Blue Serge Suit (With a Belt in the Back).wav
Pre-gap length 0:00:02.00
Peak level 98.8 %Track quality 100.0 %Test CRC D791AC72Copy CRC D791AC72Track not present in AccurateRip databaseCopy OK
Track 2
Filename F:\BitTorrent\Gangster Fun - Pure Sound, Pure Hogwash, Pure Amphetamines\02 - Date with Density.wav
Peak level 99.9 %Track quality 100.0 %Test CRC EBC318BFCopy CRC EBC318BFTrack not present in AccurateRip databaseCopy OK
Track 3
Filename F:\BitTorrent\Gangster Fun - Pure Sound, Pure Hogwash, Pure Amphetamines\03 - Night of the Living Stove.wav
Pre-gap length 0:00:01.45
Peak level 99.7 %Track quality 100.0 %Test CRC 879895A9Copy CRC 879895A9Track not present in AccurateRip databaseCopy OK
Track 4
Filename F:\BitTorrent\Gangster Fun - Pure Sound, Pure Hogwash, Pure Amphetamines\04 - Skarabia.wav
Peak level 89.1 %Track quality 99.9 %Test CRC C3296906Copy CRC C3296906Track not present in AccurateRip databaseCopy OK
Track 5
Filename F:\BitTorrent\Gangster Fun - Pure Sound, Pure Hogwash, Pure Amphetamines\05 - California.wav
Peak level 99.1 %Track quality 100.0 %Test CRC 2D8C7CC8Copy CRC 2D8C7CC8Track not present in AccurateRip databaseCopy OK
Track 6
Filename F:\BitTorrent\Gangster Fun - Pure Sound, Pure Hogwash, Pure Amphetamines\06 - Oh Paranoia.wav
Pre-gap length 0:00:00.45
Peak level 100.0 %Track quality 100.0 %Test CRC 2C57B07BCopy CRC 2C57B07BTrack not present in AccurateRip databaseCopy OK
Track 7
Filename F:\BitTorrent\Gangster Fun - Pure Sound, Pure Hogwash, Pure Amphetamines\07 - Butt Down Under.wav
Peak level 100.0 %Track quality 100.0 %Test CRC 9E2C3782Copy CRC 9E2C3782Track not present in AccurateRip databaseCopy OK
Track 8
Filename F:\BitTorrent\Gangster Fun - Pure Sound, Pure Hogwash, Pure Amphetamines\08 - Dirty Love.wav
Peak level 98.7 %Track quality 100.0 %Test CRC C0A3CE97Copy CRC C0A3CE97Track not present in AccurateRip databaseCopy OK
Track 9
Filename F:\BitTorrent\Gangster Fun - Pure Sound, Pure Hogwash, Pure Amphetamines\09 - Someone to Love Me (For My Money).wav
Pre-gap length 0:00:01.42
Peak level 99.2 %Track quality 100.0 %Test CRC 6B1F84C9Copy CRC 6B1F84C9Track not present in AccurateRip databaseCopy OK
Track 10
Filename F:\BitTorrent\Gangster Fun - Pure Sound, Pure Hogwash, Pure Amphetamines\10 - Pure Sound, Pure Hogwash, Pure Amphetamines.wav
Peak level 76.1 %Track quality 100.0 %Test CRC AAF2A4A6Copy CRC AAF2A4A6Track not present in AccurateRip databaseCopy OK
Track 11
Filename F:\BitTorrent\Gangster Fun - Pure Sound, Pure Hogwash, Pure Amphetamines\11 - We Can Still Rock & Roll.wav
Peak level 98.8 %Track quality 100.0 %Test CRC ECD837E0Copy CRC ECD837E0Track not present in AccurateRip databaseCopy OK
None of the tracks are present in the AccurateRip database
No errors occurred
End of status report

2000 - Graphospasm

Exact Audio Copy V0.99 prebeta 4 from 23. January 2008
EAC extraction logfile from 28. December 2008, 1:22
Gangster Fun / Graphospasm
Used drive : HL-DT-STDVD-RAM GH22NP20 Adapter: 3 ID: 0
Read mode : SecureUtilize accurate stream : YesDefeat audio cache : YesMake use of C2 pointers : No
Read offset correction : 102Overread into Lead-In and Lead-Out : NoFill up missing offset samples with silence : YesDelete leading and trailing silent blocks : NoNull samples used in CRC calculations : YesUsed interface : Native Win32 interface for Win NT & 2000Gap handling : Appended to previous track
Used output format : Internal WAV RoutinesSample format : 44.100 Hz; 16 Bit; Stereo
TOC of the extracted CD
Track | Start | Length | Start sector | End sector --------------------------------------------------------- 1 | 0:00.00 | 2:47.60 | 0 | 12584 2 | 2:47.60 | 2:48.56 | 12585 | 25240 3 | 5:36.41 | 3:04.56 | 25241 | 39096 4 | 8:41.22 | 3:32.34 | 39097 | 55030 5 | 12:13.56 | 2:50.16 | 55031 | 67796 6 | 15:03.72 | 2:49.38 | 67797 | 80509 7 | 17:53.35 | 3:13.41 | 80510 | 95025 8 | 21:07.01 | 3:05.45 | 95026 | 108945 9 | 24:12.46 | 3:30.73 | 108946 | 124768 10 | 27:43.44 | 2:50.65 | 124769 | 137583 11 | 30:34.34 | 2:59.74 | 137584 | 151082 12 | 33:34.33 | 3:25.27 | 151083 | 166484 13 | 36:59.60 | 4:15.57 | 166485 | 185666
Track 1
Filename F:\BitTorrent\Gangster Fun - Graphospasm\01 - You're So Lame.wav
Pre-gap length 0:00:02.00
Peak level 98.8 % Track quality 100.0 % Test CRC 17388BAD Copy CRC 17388BAD Track not present in AccurateRip database Copy OK
Track 2
Filename F:\BitTorrent\Gangster Fun - Graphospasm\02 - 'Til the Weekend Comes.wav
Peak level 100.0 % Track quality 100.0 % Test CRC BADB0FF6 Copy CRC BADB0FF6 Track not present in AccurateRip database Copy OK
Track 3
Filename F:\BitTorrent\Gangster Fun - Graphospasm\03 - I'm Wearing Your Clothes.wav
Peak level 98.8 % Track quality 100.0 % Test CRC D28B758C Copy CRC D28B758C Track not present in AccurateRip database Copy OK
Track 4
Filename F:\BitTorrent\Gangster Fun - Graphospasm\04 - What's It Take to Turn You On .wav
Peak level 98.8 % Track quality 100.0 % Test CRC 6485B4B4 Copy CRC 6485B4B4 Track not present in AccurateRip database Copy OK
Track 5
Filename F:\BitTorrent\Gangster Fun - Graphospasm\05 - Clean Freak.wav
Peak level 98.8 % Track quality 100.0 % Test CRC B0A2C5BA Copy CRC B0A2C5BA Track not present in AccurateRip database Copy OK
Track 6
Filename F:\BitTorrent\Gangster Fun - Graphospasm\06 - Tyrone.wav
Peak level 98.8 % Track quality 100.0 % Test CRC D0AE509E Copy CRC D0AE509E Track not present in AccurateRip database Copy OK
Track 7
Filename F:\BitTorrent\Gangster Fun - Graphospasm\07 - Rushmore.wav
Pre-gap length 0:00:00.01
Peak level 98.8 % Track quality 100.0 % Test CRC A58F53BC Copy CRC A58F53BC Track not present in AccurateRip database Copy OK
Track 8
Filename F:\BitTorrent\Gangster Fun - Graphospasm\08 - Mr. Mildew.wav
Peak level 98.8 % Track quality 99.9 % Test CRC DB3801AA Copy CRC DB3801AA Track not present in AccurateRip database Copy OK
Track 9
Filename F:\BitTorrent\Gangster Fun - Graphospasm\09 - Desperate Man.wav
Pre-gap length 0:00:00.01
Peak level 98.8 % Track quality 100.0 % Test CRC CDCA66E9 Copy CRC CDCA66E9 Track not present in AccurateRip database Copy OK
Track 10
Filename F:\BitTorrent\Gangster Fun - Graphospasm\10 - Anti-Social Disease.wav
Pre-gap length 0:00:00.01
Peak level 97.7 % Track quality 100.0 % Test CRC CA999228 Copy CRC CA999228 Track not present in AccurateRip database Copy OK
Track 11
Filename F:\BitTorrent\Gangster Fun - Graphospasm\11 - Don't Put Your Hand on My Shoulder.wav
Pre-gap length 0:00:00.09
Peak level 100.0 % Track quality 99.9 % Test CRC 3A810DAD Copy CRC 3A810DAD Track not present in AccurateRip database Copy OK
Track 12
Filename F:\BitTorrent\Gangster Fun - Graphospasm\12 - Half-Wit.wav
Pre-gap length 0:00:00.01
Peak level 97.7 % Track quality 100.0 % Test CRC DBF53F0B Copy CRC DBF53F0B Track not present in AccurateRip database Copy OK
Track 13
Filename F:\BitTorrent\Gangster Fun - Graphospasm\13 - untitled.wav
Pre-gap length 0:00:00.01
Peak level 97.7 % Track quality 100.0 % Test CRC 3E3E75E4 Copy CRC 3E3E75E4 Track not present in AccurateRip database Copy OK
None of the tracks are present in the AccurateRip database
No errors occurred
End of status report

О Группе:

Gangster Fun was a Detroit Third-Wave ska band active in the late 1980s and early 1990s. Although beloved of the local scene and an influence on later bands that would be better-known such as The Suicide Machines, they never really hit it big. That was a shame, because they were one of the best ska bands ever, even outranking heavyweights like Bim Skala Bim and The Toasters.
MP3 320 kbps-


[islamvillage.com]_t_1633677.torrent
Торрент: Зарегистрирован ·  [ 2017-10-09 18:48 ] ·  eae556b2d99b42948a40c02d976a1397ffcf0480

20 KB

Статус: проверено
Скачан: 0 раз
Размер: 748 MB
Оценка: 
(Голосов: 0)
Сказали спасибо: 0  Спасибо
Похожие темы
[Профиль]    [ЛС]
Показать сообщения:    
Ответить на тему

Текущее время: Сегодня 06:20

Часовой пояс: GMT + 7



Вы не можете начинать темы
Вы не можете отвечать на сообщения
Вы не можете редактировать свои сообщения
Вы не можете удалять свои сообщения
Вы не можете голосовать в опросах
Вы не можете прикреплять файлы к сообщениям
Вы можете скачивать файлы


4 Filo COMPLETO WAVE MOTO REGOLATORE RADDRIZZATORE 12V DC quattro SCOOTER NUOVO | Paranormal Highway | Gummilitze Gummiband breit Hosengummi Loch-Gummi Wäschegummi Hutgummi Smokgummi