(SkaMusic/Reggae/Rock) Tim Armstrong - A Poet\'s Life - 2007, FLAC (tracks+.cue), lossless

Ответить на тему
Статистика раздачи [Обновить пиров]
Размер:  165 MB   |    Зарегистрирован:  1 год 3 месяца   |    Скачан:  0 раз

Полного источника не было: Никогда

 
   
 
 
 
Автор Сообщение

islamvillage.com

Создавать темы 09-Окт-2017 18:51

[Цитировать]

Tim Armstrong - A Poet's Life
Жанр: SkaMusic
Год выхода диска: 2007
Аудио кодек: FLAC
Тип рипа: tracks+.cue
Битрейт аудио: lossless
Трэклист:

01. Wake Up (3:00)
02. Hold On (3:52)
03. Into Action (3:40)
04. Translator (4:12)
05. Take This City (3:14)
06. Inner City Violence (3:48)
07. Oh No (3:08)
08. Lady Demeter (2:24)
09. Among The Dead (3:33)
10. Cold Blooded (2:45)

Log EAC

Exact Audio Copy V0.99 prebeta 4 from 23. January 2008
EAC extraction logfile from 12. June 2008, 14:55
Tim Armstrong / " A Poet's Life "
Used drive : LITE-ON DVDRW SHW-160P6S Adapter: 0 ID: 0
Read mode : Secure
Utilize accurate stream : Yes
Defeat audio cache : No
Make use of C2 pointers : No
Read offset correction : 6
Overread into Lead-In and Lead-Out : No
Fill up missing offset samples with silence : Yes
Delete leading and trailing silent blocks : No
Null samples used in CRC calculations : Yes
Used interface : Native Win32 interface for Win NT & 2000
Gap handling : Appended to previous track
Used output format : User Defined Encoder
Selected bitrate : 192 kBit/s
Quality : High
Add ID3 tag : No
Command line compressor : C:\Program Files\FLAC\flac.exe
Additional command line options : -V -8 -T "artist=%a" -T "title=%t" -T "album=%g" -T "date=%y" -T "tracknumber=%n" -T "genre=%m" %s
TOC of the extracted CD
Track | Start | Length | Start sector | End sector
---------------------------------------------------------
1 | 0:00.00 | 2:59.62 | 0 | 13486
2 | 2:59.62 | 3:52.21 | 13487 | 30907
3 | 6:52.08 | 3:39.55 | 30908 | 47387
4 | 10:31.63 | 4:11.45 | 47388 | 66257
5 | 14:43.33 | 3:14.20 | 66258 | 80827
6 | 17:57.53 | 3:48.30 | 80828 | 97957
7 | 21:46.08 | 3:07.39 | 97958 | 112021
8 | 24:53.47 | 2:24.24 | 112022 | 122845
9 | 27:17.71 | 3:32.42 | 122846 | 138787
10 | 30:50.38 | 2:45.14 | 138788 | 151176
Track 1
Filename D:\Music\Tim Armstrong\A POet's Life [FLAC]\01 - Wake Up.wav
Pre-gap length 0:00:02.00
Peak level 99.9 %
Track quality 100.0 %
Test CRC 38BC598C
Copy CRC 38BC598C
Copy OK
Track 2
Filename D:\Music\Tim Armstrong\A POet's Life [FLAC]\02 - Hold On.wav
Peak level 99.9 %
Track quality 100.0 %
Test CRC AC499778
Copy CRC AC499778
Copy OK
Track 3
Filename D:\Music\Tim Armstrong\A POet's Life [FLAC]\03 - Into Action.wav
Peak level 99.9 %
Track quality 100.0 %
Test CRC C6454D5D
Copy CRC C6454D5D
Copy OK
Track 4
Filename D:\Music\Tim Armstrong\A POet's Life [FLAC]\04 - Translator.wav
Peak level 99.9 %
Track quality 100.0 %
Test CRC B1EB12D5
Copy CRC B1EB12D5
Copy OK
Track 5
Filename D:\Music\Tim Armstrong\A POet's Life [FLAC]\05 - Take This City.wav
Pre-gap length 0:00:00.64
Peak level 99.9 %
Track quality 99.9 %
Test CRC C69FEA5E
Copy CRC C69FEA5E
Copy OK
Track 6
Filename D:\Music\Tim Armstrong\A POet's Life [FLAC]\06 - Inner City Violence.wav
Peak level 99.9 %
Track quality 100.0 %
Test CRC 7077150B
Copy CRC 7077150B
Copy OK
Track 7
Filename D:\Music\Tim Armstrong\A POet's Life [FLAC]\07 - Oh No.wav
Peak level 99.9 %
Track quality 100.0 %
Test CRC 33D9197A
Copy CRC 33D9197A
Copy OK
Track 8
Filename D:\Music\Tim Armstrong\A POet's Life [FLAC]\08 - Lady Demeter.wav
Peak level 99.9 %
Track quality 100.0 %
Test CRC DBC29DA4
Copy CRC DBC29DA4
Copy OK
Track 9
Filename D:\Music\Tim Armstrong\A POet's Life [FLAC]\09 - Among The Dead.wav
Peak level 99.9 %
Track quality 100.0 %
Test CRC AAD60FEA
Copy CRC AAD60FEA
Copy OK
Track 10
Filename D:\Music\Tim Armstrong\A POet's Life [FLAC]\10 - Cold Blooded.wav
Pre-gap length 0:00:00.33
Peak level 99.9 %
Track quality 100.0 %
Test CRC B898038C
Copy CRC B898038C
Copy OK
No errors occurred
End of status report
Лог не очень. Скачано из waffles.Приятного прослушивания!


[islamvillage.com]_t_962179.torrent
Торрент: Зарегистрирован ·  [ 2017-10-09 18:48 ] ·  2f264277c8ff51c81539eeb57d05503d0a5833a0

14 KB

Статус: проверено
Скачан: 0 раз
Размер: 165 MB
Оценка: 
(Голосов: 0)
Сказали спасибо: 0  Спасибо
Похожие темы
[Профиль]    [ЛС]
Показать сообщения:    
Ответить на тему

Текущее время: Сегодня 05:54

Часовой пояс: GMT + 7



Вы не можете начинать темы
Вы не можете отвечать на сообщения
Вы не можете редактировать свои сообщения
Вы не можете удалять свои сообщения
Вы не можете голосовать в опросах
Вы не можете прикреплять файлы к сообщениям
Вы можете скачивать файлы


Deutsches Reich 485 W OR obere linke ecke postfrisch, margen mit falz | Fantastic Bea (2016) | The Hill Analysis