(JSka/SkaPunk) Kemuri - 2 Albums - 1997 - 1998, FLAC (tracks+.cue), lossless

Ответить на тему
Статистика раздачи [Обновить пиров]
Размер:  602 MB   |    Зарегистрирован:  1 год 3 месяца   |    Скачан:  0 раз

Полного источника не было: Никогда

 
   
 
 
 
Автор Сообщение

islamvillage.com

Создавать темы 09-Окт-2017 18:51

[Цитировать]

Kemuri - 2 Albums- -Жанр: J-Ska/Ska-Punk | Год: 1997 - 1998 | Страна: Japan | Аудио кодек: FLAC | Тип рипа: tracks+.cue | Битрейт аудио: lossless | Продолж.: 01:20:27-1997 - Little Playmate
01. New Generation
02. Knockin' On The Door
03. Prayer
04. Workin' Dayz
05. Rainy Saturday
06. Circle Of Life
07. Sunset
08. Live Up To Ya Rights!
09. Don't Know
10. Ato-Ichinen
11. Mercy
12. Givin' Up
13. Yellow Survivors
14. On The Street

EAC

EAC extraction logfile from 29. August 2008, 19:27 for CDKemuri / Little Playmate
Used drive : SONY DVD+-RW DW-D56A Adapter: 1 ID: 0Read mode : Secure with NO C2, accurate stream, disable cacheRead offset correction : 12Overread into Lead-In and Lead-Out : No
Used output format : C:\Program Files\Exact Audio Copy\flac.exe (User Defined Encoder) 192 kBit/s Additional command line options : -8 -A tukey(0.25) -A gauss(0.1875) -b 4096 -V -T "artist=%a" -T "title=%t" -T "album=%g" -T "date=%y" -T "tracknumber=%n" -T "genre=%m" %s --sector-align
Other options : Fill up missing offset samples with silence : Yes Delete leading and trailing silent blocks : No Native Win32 interface for Win NT & 2000
Track 1 Filename E:\FLACS\Kemuri\Little Playmate\01 - Kemuri - New Generation.wav
Pre-gap length 0:00:02.00
Peak level 100.0 % Track quality 100.0 % Test CRC B8ED0E5A Copy CRC B8ED0E5A Copy OK
Track 2 Filename E:\FLACS\Kemuri\Little Playmate\02 - Kemuri - Knockin' On The Door.wav
Peak level 100.0 % Track quality 100.0 % Test CRC DB9B18E5 Copy CRC DB9B18E5 Copy OK
Track 3 Filename E:\FLACS\Kemuri\Little Playmate\03 - Kemuri - Prayer.wav
Peak level 100.0 % Track quality 100.0 % Test CRC D5D57F28 Copy CRC D5D57F28 Copy OK
Track 4 Filename E:\FLACS\Kemuri\Little Playmate\04 - Kemuri - Workin' Dayz.wav
Peak level 100.0 % Track quality 100.0 % Test CRC 035B894C Copy CRC 035B894C Copy OK
Track 5 Filename E:\FLACS\Kemuri\Little Playmate\05 - Kemuri - Rainy Saturday.wav
Peak level 100.0 % Track quality 100.0 % Test CRC E7FFC5F6 Copy CRC E7FFC5F6 Copy OK
Track 6 Filename E:\FLACS\Kemuri\Little Playmate\06 - Kemuri - Circle Of Life.wav
Peak level 100.0 % Track quality 100.0 % Test CRC 609A9D64 Copy CRC 609A9D64 Copy OK
Track 7 Filename E:\FLACS\Kemuri\Little Playmate\07 - Kemuri - Sunset.wav
Pre-gap length 0:00:01.60
Peak level 100.0 % Track quality 99.9 % Test CRC 4FF42FA9 Copy CRC 4FF42FA9 Copy OK
Track 8 Filename E:\FLACS\Kemuri\Little Playmate\08 - Kemuri - Live Up To Ya Rights!.wav
Peak level 100.0 % Track quality 100.0 % Test CRC E16CB1F3 Copy CRC E16CB1F3 Copy OK
Track 9 Filename E:\FLACS\Kemuri\Little Playmate\09 - Kemuri - Don't Know.wav
Peak level 100.0 % Track quality 99.8 % Test CRC F46E2D9C Copy CRC F46E2D9C Copy OK
Track 10 Filename E:\FLACS\Kemuri\Little Playmate\10 - Kemuri - Ato-Ichinen.wav
Peak level 100.0 % Track quality 100.0 % Test CRC C07813C3 Copy CRC C07813C3 Copy OK
Track 11 Filename E:\FLACS\Kemuri\Little Playmate\11 - Kemuri - Mercy.wav
Peak level 100.0 % Track quality 100.0 % Test CRC 6658F8A0 Copy CRC 6658F8A0 Copy OK
Track 12 Filename E:\FLACS\Kemuri\Little Playmate\12 - Kemuri - Givin' Up.wav
Peak level 100.0 % Track quality 100.0 % Test CRC A0EB2888 Copy CRC A0EB2888 Copy OK
Track 13 Filename E:\FLACS\Kemuri\Little Playmate\13 - Kemuri - Yellow Survivors.wav
Peak level 100.0 % Track quality 100.0 % Test CRC 649CCCCA Copy CRC 649CCCCA Copy OK
Track 14 Filename E:\FLACS\Kemuri\Little Playmate\14 - Kemuri - On The Street.wav
Peak level 100.0 % Track quality 100.0 % Test CRC 54D1F5ED Copy CRC 54D1F5ED Copy OK
No errors occured
End of status report
-1998 - 77 Days
01. Heart Beat
02. Pma (Positive Mental Attitude)
03. Minimum Wage
04. Ohichyo
05. Birthday
06. Nite Drive
08. Tiny Squre Room
09. Lights & Shadows
10. Kanasimiyo
11. Second Chance
12. Father's Mountain
13. 77 Days-Secret
14. Along the Longest Way

EAC

EAC extraction logfile from 13. January 2009, 15:47 for CDKemuri / 77 Days
Used drive : ATAPI CD N DH48N1P Adapter: 0 ID: 0Read mode : Secure with NO C2, accurate stream, disable cacheRead offset correction : 6Overread into Lead-In and Lead-Out : No
Used output format : C:\Program Files\FLAC\flac.exe (User Defined Encoder) 32 kBit/s Additional command line options : %l--best%l%h--fast%h -V --replay-gain -T "artist=%a" -T "title=%t" -T "album=%g" -T "date=%y" -T "tracknumber=%n/%x" -T "genre=%m" -T "comment=%e" %s
Other options : Fill up missing offset samples with silence : Yes Delete leading and trailing silent blocks : No Native Win32 interface for Win NT & 2000
Track 1 Filename F:\Kemuri - 77 Days\01-Heart Beat.wav
Pre-gap length 0:00:02.00
Peak level 96.6 % Track quality 100.0 % Copy CRC BB467C04 Copy OK
Track 2 Filename F:\Kemuri - 77 Days\02-PMA(Positive Mental Attitude).wav
Peak level 96.6 % Track quality 100.0 % Copy CRC DDCB5077 Copy OK
Track 3 Filename F:\Kemuri - 77 Days\03-Minimum Wage.wav
Peak level 96.6 % Track quality 100.0 % Copy CRC ED97DCAF Copy OK
Track 4 Filename F:\Kemuri - 77 Days\04-Ohichyo.wav
Peak level 96.6 % Track quality 100.0 % Copy CRC 009A0CF1 Copy OK
Track 5 Filename F:\Kemuri - 77 Days\05-Birthday.wav
Peak level 96.6 % Track quality 100.0 % Copy CRC B8730856 Copy OK
Track 6 Filename F:\Kemuri - 77 Days\06-Nite Drive.wav
Peak level 96.6 % Track quality 99.8 % Copy CRC F59428CF Copy OK
Track 7 Filename F:\Kemuri - 77 Days\07-What Else.wav
Peak level 96.6 % Track quality 100.0 % Copy CRC C0B740DD Copy OK
Track 8 Filename F:\Kemuri - 77 Days\08-Tiny Square Room.wav
Peak level 96.6 % Track quality 99.8 % Copy CRC DC9848CD Copy OK
Track 9 Filename F:\Kemuri - 77 Days\09-Lights and Shadows.wav
Peak level 96.6 % Track quality 100.0 % Copy CRC 215E2047 Copy OK
Track 10 Filename F:\Kemuri - 77 Days\10-Kanasimiyo.wav
Peak level 96.6 % Track quality 100.0 % Copy CRC 0CF20EEF Copy OK
Track 11 Filename F:\Kemuri - 77 Days\11-Second Chance.wav
Peak level 96.6 % Track quality 100.0 % Copy CRC 76EBDFCF Copy OK
Track 12 Filename F:\Kemuri - 77 Days\12-Father's Mountain.wav
Peak level 96.6 % Track quality 100.0 % Copy CRC A074CA60 Copy OK
Track 13 Filename F:\Kemuri - 77 Days\13-Secret.wav
Peak level 96.6 % Track quality 99.8 % Copy CRC 31EDF8EC Copy OK
Track 14 Filename F:\Kemuri - 77 Days\14-Along the Longest Way.wav
Peak level 96.6 % Track quality 100.0 % Copy CRC FE0009E1 Copy OK
No errors occured
End of status report
-
Цитата: писал(а):

Kemuri - самая известная японская ска-панк банда, образовавшаяся в 1995 году и играющая по сей день, ее популярность простирается практически по всему миру.
Группа удачно сочетает с одной стороны, мощный, четко сыгранный и слаженный ска-панк, сыгранный как говориться на одном дыхании (это сторона ориентирована в большей мере на запад), а с другой - они не забывают о своих корнях, исполняя мелодичные композиции, смешивая традиционные японские мотивы с регги. Все это, в купе и образует эту невероятную по силе исполнения и энергетике jska-punk музыку!!!
Ребятки записали кучу альбомов, море синглов, живые выступления и DVD. Kemuri - музыкальные короли своей большой родины и гордые носители jska-punk - японского ска-панка!!!
-


[islamvillage.com]_t_1721292.torrent
Торрент: Зарегистрирован ·  [ 2017-10-09 18:48 ] ·  8cd81e85460fdd8a447bbfb789142a79cb829684

15 KB

Статус: проверено
Скачан: 0 раз
Размер: 602 MB
Оценка: 
(Голосов: 0)
Сказали спасибо: 0  Спасибо
Похожие темы
[Профиль]    [ЛС]
Показать сообщения:    
Ответить на тему

Текущее время: Сегодня 07:07

Часовой пояс: GMT + 7



Вы не можете начинать темы
Вы не можете отвечать на сообщения
Вы не можете редактировать свои сообщения
Вы не можете удалять свои сообщения
Вы не можете голосовать в опросах
Вы не можете прикреплять файлы к сообщениям
Вы можете скачивать файлы


Normalna Jakość | PUNK PATCHES A to Z Sew On Rock n roll hardcore metal crust anarcho grind badge | Domestic na Kanojo chap 55