(SkaJazz) Tokyo Ska Paradise Orchestra - 3 Albums - 1989 - 2005, FLAC (tracks+.cue), lossless

Ответить на тему
Статистика раздачи [Обновить пиров]
Размер:  869 MB   |    Зарегистрирован:  1 год 3 месяца   |    Скачан:  0 раз

Полного источника не было: Никогда

 
   
 
 
 
Автор Сообщение

islamvillage.com

Создавать темы 09-Окт-2017 18:51

[Цитировать]

Tokyo Ska Paradise Orchestra- -Жанр: SkaJazz | Год выхода диска: 1989 - 2005 | Страна: Japan | Аудио кодек: FLAC | Тип рипа: tracks+.cue | Битрейт аудио: lossless-

1989 - Tokyo Ska Paradise Orchestra

[img=right]http://images-na.ssl-images-amazon.com/images/I/51C9CBKkZmL.jpg[/img]
01. Pedorazu (2:24)
01. Pedorazu (2:22)
02. Skaravan (Caravan) (3:03)
02. Skaravan (3:01)
03. Skambo (3:04)
03. Sukambo (3:04)
04. Just a Little Bit of Your Soul (3:18)
04. Just A Little Bit Of Your Soul (3:18)
05. Holiday (2:43)
05. Holiday (2:24)
06. Christmas Ska (2:12)
06. Christmaska (1:10)

1990 - Ska Para Toujou

[img=right]http://images-na.ssl-images-amazon.com/images/I/51vVgl34mPL.jpg[/img]
01. Strange Bird (3:04)
02. Vampire (3:08)
03. Monster Rock (3:21)
04. Kozou No Kousin (3:22)
05. Uuhan No Onna (3:06)
06. Tin Tin Deo (3:46)
07. Getsumen Butou (2:32)
08. Nigai Namida (3:31)
09. Inishie No Hana (3:30)
10. Golden Tiger (2:38)
11. Hit the Road Jack (3:22)
12. Dokidoki Time (3:03)
13. Kimi to Boku (2:12)

2005 - Ska Me Crazy

01. The Last Bandolero (3:51)
02. 5 Days Of Tequila (3:48)
03. A Quick Drunkard (3:35)
04. Call From Rio (3:17)
05. Soul Growl (4:42)
06. All Or Nothing (3:20)
07. Skull Collector (3:57)
08. Howlin' Wolves (3:03)
09. Natty Parade (3:59)
10. Lovers Walk (5:16)
11. The Movin' Dub (5:08)
12. Film-Makers Bleed (3:46)
13. Theme From Enter The Dragon (4:07)
14. Down Beat Stomp (4:18)
15. Ska Me Crazy (3:14)
--

EAC1989 - Tokyo Ska Paradise Orchestra

Exact Audio Copy V0.99 prebeta 3 from 28. July 2007
EAC extraction logfile from 1. July 2008, 9:29
Tokyo Ska Paradise Orchestra / Tokyo Ska Paradise Orchestra
Used drive : HL-DT-STDVD-RW GWA-4082N Adapter: 1 ID: 0
Read mode : SecureUtilize accurate stream : YesDefeat audio cache : YesMake use of C2 pointers : No
Read offset correction : 667Overread into Lead-In and Lead-Out : NoFill up missing offset samples with silence : YesDelete leading and trailing silent blocks : NoNull samples used in CRC calculations : YesUsed interface : Installed external ASPI interfaceGap handling : Appended to previous track
Used output format : User Defined EncoderSelected bitrate : 192 kBit/sQuality : HighAdd ID3 tag : NoCommand line compressor : C:\Program Files\Exact Audio Copy\flac.exeAdditional command line options : -8 -A tukey(0.25) -A gauss(0.1875) -b 4096 -V -T "artist=%a" -T "title=%t" -T "album=%g" -T "date=%y" -T "tracknumber=%n" -T "genre=%m" %s --sector-align
TOC of the extracted CD
Track | Start | Length | Start sector | End sector --------------------------------------------------------- 1 | 0:00.00 | 2:23.55 | 0 | 10779 2 | 2:23.55 | 3:03.27 | 10780 | 24531 3 | 5:27.07 | 3:03.73 | 24532 | 38329 4 | 8:31.05 | 3:18.15 | 38330 | 53194 5 | 11:49.20 | 2:43.00 | 53195 | 65419 6 | 14:32.20 | 2:12.17 | 65420 | 75336
Track 1
Filename C:\Tokyo Ska Paradise Orchestra - 1990 - Tokyo Ska Paradise Orchestra\01 - Pedorazu.wav
Pre-gap length 0:00:02.00
Peak level 100.0 % Track quality 100.0 % Test CRC 6A1D9726 Copy CRC 6A1D9726 Track not present in AccurateRip database Copy OK
Track 2
Filename C:\Tokyo Ska Paradise Orchestra - 1990 - Tokyo Ska Paradise Orchestra\02 - Skaravan (Caravan).wav
Pre-gap length 0:00:02.50
Peak level 97.7 % Track quality 100.0 % Test CRC A8DD723F Copy CRC A8DD723F Track not present in AccurateRip database Copy OK
Track 3
Filename C:\Tokyo Ska Paradise Orchestra - 1990 - Tokyo Ska Paradise Orchestra\03 - Skambo.wav
Pre-gap length 0:00:02.49
Peak level 100.0 % Track quality 99.9 % Test CRC 52BBF0B4 Copy CRC 52BBF0B4 Track not present in AccurateRip database Copy OK
Track 4
Filename C:\Tokyo Ska Paradise Orchestra - 1990 - Tokyo Ska Paradise Orchestra\04 - Just a Little Bit of Your Soul.wav
Pre-gap length 0:00:02.50
Peak level 97.7 % Track quality 100.0 % Test CRC 5CBD0AD8 Copy CRC 5CBD0AD8 Track not present in AccurateRip database Copy OK
Track 5
Filename C:\Tokyo Ska Paradise Orchestra - 1990 - Tokyo Ska Paradise Orchestra\05 - Holiday.wav
Pre-gap length 0:00:02.50
Peak level 97.7 % Track quality 100.0 % Test CRC CC29F20D Copy CRC CC29F20D Track not present in AccurateRip database Copy OK
Track 6
Filename C:\Tokyo Ska Paradise Orchestra - 1990 - Tokyo Ska Paradise Orchestra\06 - Christmas Ska.wav
Pre-gap length 0:00:02.50
Peak level 92.6 % Track quality 100.0 % Test CRC 17C316CF Copy CRC 17C316CF Track not present in AccurateRip database Copy OK
None of the tracks are present in the AccurateRip database
No errors occurred
End of status report

1990 - Ska Para Toujou

Exact Audio Copy V0.99 prebeta 4 from 23. January 2008
EAC extraction logfile from 6. March 2009, 23:49
Tokyo Ska Paradise Orchestra / Ska Para Toujou
Used drive : HL-DT-STDVDRAM GSA-4163B Adapter: 1 ID: 0
Read mode : SecureUtilize accurate stream : YesDefeat audio cache : YesMake use of C2 pointers : No
Read offset correction : 667Overread into Lead-In and Lead-Out : NoFill up missing offset samples with silence : YesDelete leading and trailing silent blocks : NoNull samples used in CRC calculations : YesUsed interface : Native Win32 interface for Win NT & 2000Gap handling : Appended to previous track
Used output format : User Defined EncoderSelected bitrate : 768 kBit/sQuality : HighAdd ID3 tag : NoCommand line compressor : C:\Program Files\Exact Audio Copy\FLAC\FLAC.EXEAdditional command line options : -6 -V -T "ARTIST=%a" -T "TITLE=%t" -T "ALBUM=%g" -T "DATE=%y" -T "TRACKNUMBER=%n" -T "GENRE=%m" -T "COMMENT=%e" %s -o %d
TOC of the extracted CD
Track | Start | Length | Start sector | End sector --------------------------------------------------------- 1 | 0:00.00 | 3:04.37 | 0 | 13836 2 | 3:04.37 | 3:08.18 | 13837 | 27954 3 | 6:12.55 | 3:20.70 | 27955 | 43024 4 | 9:33.50 | 3:22.35 | 43025 | 58209 5 | 12:56.10 | 3:05.52 | 58210 | 72136 6 | 16:01.62 | 3:45.63 | 72137 | 89074 7 | 19:47.50 | 2:32.15 | 89075 | 100489 8 | 22:19.65 | 3:31.22 | 100490 | 116336 9 | 25:51.12 | 3:30.33 | 116337 | 132119 10 | 29:21.45 | 2:38.37 | 132120 | 144006 11 | 32:00.07 | 3:22.30 | 144007 | 159186 12 | 35:22.37 | 3:02.63 | 159187 | 172899 13 | 38:25.25 | 2:11.50 | 172900 | 182774
Track 1
Filename F:\Music\Tokyo Ska Paradise Orchestra {1990} Skapara Toujou [FLAC]\01 - Strange Bird.wav
Pre-gap length 0:00:02.00
Peak level 100.0 % Track quality 100.0 % Test CRC 208D36CB Copy CRC 208D36CB Track not present in AccurateRip database Copy OK
Track 2
Filename F:\Music\Tokyo Ska Paradise Orchestra {1990} Skapara Toujou [FLAC]\02 - Vampire.wav
Pre-gap length 0:00:00.73
Peak level 100.0 % Track quality 100.0 % Test CRC ABB07F33 Copy CRC ABB07F33 Track not present in AccurateRip database Copy OK
Track 3
Filename F:\Music\Tokyo Ska Paradise Orchestra {1990} Skapara Toujou [FLAC]\03 - Monster Rock.wav
Pre-gap length 0:00:00.35
Peak level 100.0 % Track quality 100.0 % Test CRC FA5A7737 Copy CRC FA5A7737 Track not present in AccurateRip database Copy OK
Track 4
Filename F:\Music\Tokyo Ska Paradise Orchestra {1990} Skapara Toujou [FLAC]\04 - Kozou No Kousin.wav
Pre-gap length 0:00:01.48
Peak level 100.0 % Track quality 100.0 % Test CRC 661E383B Copy CRC 661E383B Track not present in AccurateRip database Copy OK
Track 5
Filename F:\Music\Tokyo Ska Paradise Orchestra {1990} Skapara Toujou [FLAC]\05 - Uuhan No Onna.wav
Pre-gap length 0:00:00.55
Peak level 100.0 % Track quality 100.0 % Test CRC EF10B866 Copy CRC EF10B866 Track not present in AccurateRip database Copy OK
Track 6
Filename F:\Music\Tokyo Ska Paradise Orchestra {1990} Skapara Toujou [FLAC]\06 - Tin Tin Deo.wav
Pre-gap length 0:00:01.01
Peak level 100.0 % Track quality 100.0 % Test CRC B3692D41 Copy CRC B3692D41 Track not present in AccurateRip database Copy OK
Track 7
Filename F:\Music\Tokyo Ska Paradise Orchestra {1990} Skapara Toujou [FLAC]\07 - Getsumen Butou.wav
Pre-gap length 0:00:00.70
Peak level 100.0 % Track quality 100.0 % Test CRC 3CBDA27B Copy CRC 3CBDA27B Track not present in AccurateRip database Copy OK
Track 8
Filename F:\Music\Tokyo Ska Paradise Orchestra {1990} Skapara Toujou [FLAC]\08 - Nigai Namida.wav
Pre-gap length 0:00:00.58
Peak level 100.0 % Track quality 100.0 % Test CRC BDA656F9 Copy CRC BDA656F9 Track not present in AccurateRip database Copy OK
Track 9
Filename F:\Music\Tokyo Ska Paradise Orchestra {1990} Skapara Toujou [FLAC]\09 - Inishie No Hana.wav
Pre-gap length 0:00:01.42
Peak level 100.0 % Track quality 100.0 % Test CRC 94B75CBB Copy CRC 94B75CBB Track not present in AccurateRip database Copy OK
Track 10
Filename F:\Music\Tokyo Ska Paradise Orchestra {1990} Skapara Toujou [FLAC]\10 - Golden Tiger.wav
Pre-gap length 0:00:01.59
Peak level 100.0 % Track quality 100.0 % Test CRC 76D6E8AD Copy CRC 76D6E8AD Track not present in AccurateRip database Copy OK
Track 11
Filename F:\Music\Tokyo Ska Paradise Orchestra {1990} Skapara Toujou [FLAC]\11 - Hit the Road Jack.wav
Pre-gap length 0:00:01.57
Peak level 100.0 % Track quality 100.0 % Test CRC 842190E3 Copy CRC 842190E3 Track not present in AccurateRip database Copy OK
Track 12
Filename F:\Music\Tokyo Ska Paradise Orchestra {1990} Skapara Toujou [FLAC]\12 - Dokidoki Time.wav
Pre-gap length 0:00:01.65
Peak level 100.0 % Track quality 100.0 % Test CRC 4243CACC Copy CRC 4243CACC Track not present in AccurateRip database Copy OK
Track 13
Filename F:\Music\Tokyo Ska Paradise Orchestra {1990} Skapara Toujou [FLAC]\13 - Kimi to Boku.wav
Pre-gap length 0:00:02.53
Peak level 48.8 % Track quality 100.0 % Test CRC 31E694D7 Copy CRC 31E694D7 Track not present in AccurateRip database Copy OK
None of the tracks are present in the AccurateRip database
No errors occurred
End of status report

2005 - Ska Me Crazy

Exact Audio Copy V0.99 prebeta 4 from 23. January 2008
EAC extraction logfile from 15. January 2009, 11:30
Tokyo Ska Paradise Orchestra / Ska Me Crazy
Used drive : _NEC DVD_RW ND-3550A Adapter: 3 ID: 0
Read mode : SecureUtilize accurate stream : YesDefeat audio cache : YesMake use of C2 pointers : No
Read offset correction : 48Overread into Lead-In and Lead-Out : NoFill up missing offset samples with silence : YesDelete leading and trailing silent blocks : NoNull samples used in CRC calculations : YesUsed interface : Native Win32 interface for Win NT & 2000Gap handling : Appended to previous track
Used output format : User Defined EncoderSelected bitrate : 320 kBit/sQuality : HighAdd ID3 tag : NoCommand line compressor : C:\Program Files\Exact Audio Copy\Flac\flac.exeAdditional command line options : -V -8 -T "artist=%a" -T "title=%t" -T "album=%g" -T "date=%y" -T "tracknumber=%n" -T "genre=%m" %s
TOC of the extracted CD
Track | Start | Length | Start sector | End sector --------------------------------------------------------- 1 | 0:00.00 | 3:51.30 | 0 | 17354 2 | 3:51.30 | 3:48.26 | 17355 | 34480 3 | 7:39.56 | 3:34.45 | 34481 | 50575 4 | 11:14.26 | 3:16.43 | 50576 | 65318 5 | 14:30.69 | 4:41.56 | 65319 | 86449 6 | 19:12.50 | 3:19.69 | 86450 | 101443 7 | 22:32.44 | 3:57.26 | 101444 | 119244 8 | 26:29.70 | 3:03.01 | 119245 | 132970 9 | 29:32.71 | 3:58.63 | 132971 | 150883 10 | 33:31.59 | 5:16.36 | 150884 | 174619 11 | 38:48.20 | 5:08.37 | 174620 | 197756 12 | 43:56.57 | 3:46.29 | 197757 | 214735 13 | 47:43.11 | 4:06.69 | 214736 | 233254 14 | 51:50.05 | 4:18.12 | 233255 | 252616 15 | 56:08.17 | 3:14.15 | 252617 | 267181 16 | 61:54.32 | 10:05.45 | 278582 | 324001
Track 1
Filename D:\EAC\Tokyo Ska Paradise Orchestra - 2005 - Ska Me Crazy\01 - The Last Bandolero.wav
Pre-gap length 0:00:02.00
Peak level 100.0 % Track quality 100.0 % Test CRC 295A7DB5 Copy CRC 295A7DB5 Track not present in AccurateRip database Copy OK
Track 2
Filename D:\EAC\Tokyo Ska Paradise Orchestra - 2005 - Ska Me Crazy\02 - 5 Days Of Tequila.wav
Pre-gap length 0:00:02.00
Peak level 100.0 % Track quality 100.0 % Test CRC F8A81D43 Copy CRC F8A81D43 Track not present in AccurateRip database Copy OK
Track 3
Filename D:\EAC\Tokyo Ska Paradise Orchestra - 2005 - Ska Me Crazy\03 - A Quick Drunkard.wav
Pre-gap length 0:00:02.00
Peak level 99.9 % Track quality 100.0 % Test CRC D12801BA Copy CRC D12801BA Track not present in AccurateRip database Copy OK
Track 4
Filename D:\EAC\Tokyo Ska Paradise Orchestra - 2005 - Ska Me Crazy\04 - Call From Rio.wav
Pre-gap length 0:00:02.00
Peak level 100.0 % Track quality 99.9 % Test CRC CEF45DCD Copy CRC CEF45DCD Track not present in AccurateRip database Copy OK
Track 5
Filename D:\EAC\Tokyo Ska Paradise Orchestra - 2005 - Ska Me Crazy\05 - Soul Growl.wav
Pre-gap length 0:00:02.00
Peak level 100.0 % Track quality 100.0 % Test CRC 6BBF1E9E Copy CRC 6BBF1E9E Track not present in AccurateRip database Copy OK
Track 6
Filename D:\EAC\Tokyo Ska Paradise Orchestra - 2005 - Ska Me Crazy\06 - All Or Nothing.wav
Pre-gap length 0:00:02.00
Peak level 100.0 % Track quality 99.9 % Test CRC 73564AAC Copy CRC 73564AAC Track not present in AccurateRip database Copy OK
Track 7
Filename D:\EAC\Tokyo Ska Paradise Orchestra - 2005 - Ska Me Crazy\07 - Skull Collector.wav
Pre-gap length 0:00:02.00
Peak level 100.0 % Track quality 100.0 % Test CRC 27155D08 Copy CRC 27155D08 Track not present in AccurateRip database Copy OK
Track 8
Filename D:\EAC\Tokyo Ska Paradise Orchestra - 2005 - Ska Me Crazy\08 - Howlin' Wolves.wav
Pre-gap length 0:00:02.00
Peak level 99.9 % Track quality 100.0 % Test CRC 4EB7E1B4 Copy CRC 4EB7E1B4 Track not present in AccurateRip database Copy OK
Track 9
Filename D:\EAC\Tokyo Ska Paradise Orchestra - 2005 - Ska Me Crazy\09 - Natty Parade.wav
Pre-gap length 0:00:02.00
Peak level 99.9 % Track quality 100.0 % Test CRC 7EE48985 Copy CRC 7EE48985 Track not present in AccurateRip database Copy OK
Track 10
Filename D:\EAC\Tokyo Ska Paradise Orchestra - 2005 - Ska Me Crazy\10 - Lovers Walk.wav
Pre-gap length 0:00:02.00
Peak level 99.9 % Track quality 100.0 % Test CRC 6F44BA7F Copy CRC 6F44BA7F Track not present in AccurateRip database Copy OK
Track 11
Filename D:\EAC\Tokyo Ska Paradise Orchestra - 2005 - Ska Me Crazy\11 - The Movin' Dub.wav
Pre-gap length 0:00:02.00
Peak level 76.9 % Track quality 99.9 % Test CRC 23428C50 Copy CRC 23428C50 Track not present in AccurateRip database Copy OK
Track 12
Filename D:\EAC\Tokyo Ska Paradise Orchestra - 2005 - Ska Me Crazy\12 - Film-Makers Bleed.wav
Pre-gap length 0:00:02.00
Peak level 100.0 % Track quality 100.0 % Test CRC 752AEFBE Copy CRC 752AEFBE Track not present in AccurateRip database Copy OK
Track 13
Filename D:\EAC\Tokyo Ska Paradise Orchestra - 2005 - Ska Me Crazy\13 - Theme From Enter The Dragon.wav
Pre-gap length 0:00:02.00
Peak level 100.0 % Track quality 100.0 % Test CRC 15E7290F Copy CRC 15E7290F Track not present in AccurateRip database Copy OK
Track 14
Filename D:\EAC\Tokyo Ska Paradise Orchestra - 2005 - Ska Me Crazy\14 - Down Beat Stomp.wav
Pre-gap length 0:00:02.00
Peak level 100.0 % Track quality 100.0 % Test CRC FFD217F0 Copy CRC FFD217F0 Track not present in AccurateRip database Copy OK
Track 15
Filename D:\EAC\Tokyo Ska Paradise Orchestra - 2005 - Ska Me Crazy\15 - Ska Me Crazy.wav
Pre-gap length 0:00:02.00
Peak level 84.1 % Track quality 100.0 % Test CRC B1B4D78B Copy CRC B1B4D78B Track not present in AccurateRip database Copy OK
None of the tracks are present in the AccurateRip database
No errors occurred
End of status report

О Группе

Tokyo Ska Paradise Orchestra (официальное название банды - "Скапара").
Образовались в 1985 году под руководством Аса Чана. Группа, состоящая из более чем десяти участников, сразу привлекла к себе внимание любителей таких стилей, как ска, джаз, рок, - то, что сформировало музыкантов на токийских улицах и в клубах столицы, отразив тем самым необычные для своего времени тенденции в развитии жанра, отточенного бесчисленными выступлениями перед разноликой публикой мегаполиса, который впоследствии дал название течению - токийское ска. Любой ценитель их музыки и тем более вовлеченный в аудио-индустрию приезжая в Японию стремится закупиться их записями.
Позитивные и жизнерадостные, Райский Оркестр Токийского Ска всегда настроит вас на веселый лад и по полной зарядит положительными эмоциями. Рекомендую всем.
-


[islamvillage.com]_t_1820973.torrent
Торрент: Зарегистрирован ·  [ 2017-10-09 18:48 ] ·  fe0cf09aed0ef250ffc6ade6a7fe9878e4cfb0f7

39 KB

Статус: проверено
Скачан: 0 раз
Размер: 869 MB
Оценка: 
(Голосов: 0)
Сказали спасибо: 0  Спасибо
Похожие темы
[Профиль]    [ЛС]
Показать сообщения:    
Ответить на тему

Текущее время: Сегодня 06:37

Часовой пояс: GMT + 7



Вы не можете начинать темы
Вы не можете отвечать на сообщения
Вы не можете редактировать свои сообщения
Вы не можете удалять свои сообщения
Вы не можете голосовать в опросах
Вы не можете прикреплять файлы к сообщениям
Вы можете скачивать файлы


Nightmare (1981) [BluRay] [720p] [YTS AM] | pharm neurotransmission | Mrs Brown’s Boys