(SkaPunk) P.O.Box - And The Lipstick Traces / InBetweenTheLines - 2007-2009, FLAC (tracks+.cue), lossless

Ответить на тему
Статистика раздачи [Обновить пиров]
Размер:  589 MB   |    Зарегистрирован:  1 год 3 месяца   |    Скачан:  0 раз

Полного источника не было: Никогда

 
   
 
 
 
Автор Сообщение

islamvillage.com

Создавать темы 09-Окт-2017 18:51

[Цитировать]

2007 - ...And The Lipstick Traces
Жанр: SkaPunk
Год выхода диска: 2007
Производитель диска: France
Аудио кодек: FLAC
Тип рипа: tracks
Битрейт аудио: lossless
Продолжительность: 35:40
Трэклист:
01- N.C.
02- Death promises me a better place
03- God blasts America
04- Would it be yours
05- Music has taken a backseat to haircuts
06- Chalk it up to the experience
07- The theory of obscurity
08- Broken hearts & credits cards
09- Look what you have done
10- Little boy
11- Everyb'addict
12- Bully
13- Make up / Wake up !

p.o.box - ...and thE LipstiCk tracEs.log

Exact Audio Copy V0.99 prebeta 5 from 4. May 2009
EAC extraction logfile from 28. July 2009, 21:53
p.o.box / ...and thE LipstiCk tracEs
Used drive : Optiarc BD ROM BC-5500A Adapter: 1 ID: 0
Read mode : Secure
Utilize accurate stream : Yes
Defeat audio cache : Yes
Make use of C2 pointers : No
Read offset correction : 48
Overread into Lead-In and Lead-Out : No
Fill up missing offset samples with silence : Yes
Delete leading and trailing silent blocks : No
Null samples used in CRC calculations : Yes
Used interface : Native Win32 interface for Win NT & 2000
Gap handling : Not detected, thus appended to previous track
Used output format : User Defined Encoder
Selected bitrate : 1024 kBit/s
Quality : High
Add ID3 tag : No
Command line compressor : C:\Program Files\Exact Audio Copy\FLAC\FLAC.EXE
Additional command line options : -8 -V -T "ARTIST=%a" -T "TITLE=%t" -T "ALBUM=%g" -T "DATE=%y" -T "TRACKNUMBER=%n" -T "GENRE=%m" -T "COMMENT=EAC FLAC -8" %s
TOC of the extracted CD
Track | Start | Length | Start sector | End sector
---------------------------------------------------------
1 | 0:00.00 | 0:27.37 | 0 | 2061
2 | 0:27.37 | 2:54.11 | 2062 | 15122
3 | 3:21.48 | 2:36.72 | 15123 | 26894
4 | 5:58.45 | 1:56.08 | 26895 | 35602
5 | 7:54.53 | 3:08.70 | 35603 | 49772
6 | 11:03.48 | 2:26.67 | 49773 | 60789
7 | 13:30.40 | 1:39.74 | 60790 | 68288
8 | 15:10.39 | 2:17.09 | 68289 | 78572
9 | 17:27.48 | 2:57.06 | 78573 | 91853
10 | 20:24.54 | 2:32.66 | 91854 | 103319
11 | 22:57.45 | 1:53.06 | 103320 | 111800
12 | 24:50.51 | 3:20.03 | 111801 | 126803
13 | 28:10.54 | 7:29.48 | 126804 | 160526
Track 1
Filename D:\Media\Music\Releases\01 – N.C..wav
Peak level 53.8 %
Track quality 100.0 %
Copy CRC CE4B0480
Copy OK
Track 2
Filename D:\Media\Music\Releases\02 – Death Promises Me A Better Place.wav
Peak level 100.0 %
Track quality 100.0 %
Copy CRC 29581FC4
Copy OK
Track 3
Filename D:\Media\Music\Releases\03 – God Blasts America.wav
Peak level 100.0 %
Track quality 100.0 %
Copy CRC C3F813F1
Copy OK
Track 4
Filename D:\Media\Music\Releases\04 – Would It Be Yours.wav
Peak level 100.0 %
Track quality 100.0 %
Copy CRC 14DAEF63
Copy OK
Track 5
Filename D:\Media\Music\Releases\05 – Music Has Taken A Backseat To Haircuts.wav
Peak level 100.0 %
Track quality 99.9 %
Copy CRC A24010B1
Copy OK
Track 6
Filename D:\Media\Music\Releases\06 – Chalk It Up To The Experience.wav
Peak level 100.0 %
Track quality 100.0 %
Copy CRC 2DD2B3D6
Copy OK
Track 7
Filename D:\Media\Music\Releases\07 – The Theory Of Obscurity.wav
Peak level 100.0 %
Track quality 100.0 %
Copy CRC EF79CB71
Copy OK
Track 8
Filename D:\Media\Music\Releases\08 – Broken Hearts & Credits Cards.wav
Peak level 100.0 %
Track quality 99.9 %
Copy CRC 1D664E72
Copy OK
Track 9
Filename D:\Media\Music\Releases\09 – Look What ou Have Done.wav
Peak level 100.0 %
Track quality 100.0 %
Copy CRC BC665A3B
Copy OK
Track 10
Filename D:\Media\Music\Releases\10 – Little Boy.wav
Peak level 100.0 %
Track quality 100.0 %
Copy CRC F05612ED
Copy OK
Track 11
Filename D:\Media\Music\Releases\11 – Everyb' Addict.wav
Peak level 100.0 %
Track quality 100.0 %
Copy CRC 67AE2151
Copy OK
Track 12
Filename D:\Media\Music\Releases\12 – Bully.wav
Peak level 100.0 %
Track quality 100.0 %
Copy CRC 43EACD15
Copy OK
Track 13
Filename D:\Media\Music\Releases\13 – Make Up , Wake Up!.wav
Peak level 100.0 %
Track quality 99.9 %
Copy CRC C072FD8F
Copy OK
No errors occurred
End of status report

-
2009 - InBetweenTheLines
Жанр: SkaPunk
Год выхода диска: 2009
Производитель диска: France
Аудио кодек: FLAC
Тип рипа: tracks
Битрейт аудио: lossless
Продолжительность: 42:55
Трэклист:
01 - Everything's So Wrong
02 - So Miligram Knew It
03 - I Refuse All Qualms
04 - The Legacy Of The Lie
05 - 59'99"
06 - We, The People
07 - Skinocracy
08 - I Want A Steady Revolution
09 - We Rise Up And We Say No
10 - Mesmerize The Masses
11 - Going To The Court
12 - Awakening The World's Conscience
13 - And The World Collapses
14 - (silent track)
15 - D/E/A/D.flac

p.o.box - InBetweenTheLines.log

Exact Audio Copy V0.99 prebeta 5 from 4. May 2009
EAC extraction logfile from 28. July 2009, 23:00
p.o.box / InBetweenTheLines
Used drive : Optiarc BD ROM BC-5500A Adapter: 1 ID: 0
Read mode : Secure
Utilize accurate stream : Yes
Defeat audio cache : Yes
Make use of C2 pointers : No
Read offset correction : 48
Overread into Lead-In and Lead-Out : No
Fill up missing offset samples with silence : Yes
Delete leading and trailing silent blocks : No
Null samples used in CRC calculations : Yes
Used interface : Native Win32 interface for Win NT & 2000
Gap handling : Not detected, thus appended to previous track
Used output format : User Defined Encoder
Selected bitrate : 1024 kBit/s
Quality : High
Add ID3 tag : No
Command line compressor : C:\Program Files\Exact Audio Copy\FLAC\FLAC.EXE
Additional command line options : -8 -V -T "ARTIST=%a" -T "TITLE=%t" -T "ALBUM=%g" -T "DATE=%y" -T "TRACKNUMBER=%n" -T "GENRE=%m" -T "COMMENT=EAC FLAC -8" %s
TOC of the extracted CD
Track | Start | Length | Start sector | End sector
---------------------------------------------------------
1 | 0:00.00 | 0:27.25 | 0 | 2049
2 | 0:27.25 | 3:51.35 | 2050 | 19409
3 | 4:18.60 | 3:34.69 | 19410 | 35528
4 | 7:53.54 | 4:15.37 | 35529 | 54690
5 | 12:09.16 | 0:59.73 | 54691 | 59188
6 | 13:09.14 | 3:03.01 | 59189 | 72914
7 | 16:12.15 | 2:34.26 | 72915 | 84490
8 | 18:46.41 | 2:46.14 | 84491 | 96954
9 | 21:32.55 | 3:12.60 | 96955 | 111414
10 | 24:45.40 | 2:30.74 | 111415 | 122738
11 | 27:16.39 | 3:21.18 | 122739 | 137831
12 | 30:37.57 | 3:19.53 | 137832 | 152809
13 | 33:57.35 | 5:21.36 | 152810 | 176920
14 | 39:18.71 | 1:18.38 | 176921 | 182808
15 | 40:37.34 | 2:17.10 | 182809 | 193093
Track 1
Filename D:\Media\Music\Releases\01 – 01 , PO Box _ Everything’s So Wrong.wav
Peak level 99.9 %
Track quality 100.0 %
Copy CRC 9A5EA7A8
Copy OK
Track 2
Filename D:\Media\Music\Releases\02 – 02 , PO Box _ So Milgram Knew It.wav
Peak level 98.8 %
Track quality 100.0 %
Copy CRC B9652431
Copy OK
Track 3
Filename D:\Media\Music\Releases\03 – 03 , PO Box _ I Refuse All Qualms.wav
Peak level 99.1 %
Track quality 100.0 %
Copy CRC 3460F805
Copy OK
Track 4
Filename D:\Media\Music\Releases\04 – 04 , PO Box _ The Legacy Of The Lie.wav
Peak level 98.8 %
Track quality 100.0 %
Copy CRC 25DC5CE2
Copy OK
Track 5
Filename D:\Media\Music\Releases\05 – 05 , PO Box _ 59’99’’.wav
Peak level 99.0 %
Track quality 100.0 %
Copy CRC CD3B6842
Copy OK
Track 6
Filename D:\Media\Music\Releases\06 – 06 , PO Box _ We, The People.wav
Peak level 98.8 %
Track quality 100.0 %
Copy CRC 50A46069
Copy OK
Track 7
Filename D:\Media\Music\Releases\07 – 07 , PO Box _ Skinocracy.wav
Peak level 98.8 %
Track quality 100.0 %
Copy CRC 4BD24840
Copy OK
Track 8
Filename D:\Media\Music\Releases\08 – 08 , PO Box _ I Want A Steady Revolution.wav
Peak level 98.8 %
Track quality 100.0 %
Copy CRC A7707D72
Copy OK
Track 9
Filename D:\Media\Music\Releases\09 – 09 , PO Box _ We Rise Up And We Say No.wav
Peak level 98.8 %
Track quality 100.0 %
Copy CRC 9F6916C9
Copy OK
Track 10
Filename D:\Media\Music\Releases\10 – 10 , PO Box _ Mesmerize The Masses.wav
Peak level 99.2 %
Track quality 100.0 %
Copy CRC 0F5208AC
Copy OK
Track 11
Filename D:\Media\Music\Releases\11 – 11 , PO Box _ Going To The Court.wav
Peak level 98.8 %
Track quality 99.9 %
Copy CRC 292AAD6D
Copy OK
Track 12
Filename D:\Media\Music\Releases\12 – 12 , PO Box _ Awakening The World’s Conscience.wav
Peak level 98.8 %
Track quality 100.0 %
Copy CRC EFBFCFFF
Copy OK
Track 13
Filename D:\Media\Music\Releases\13 – 13 , PO Box _ And The World Collapses.wav
Peak level 98.8 %
Track quality 100.0 %
Copy CRC BE3BD5D1
Copy OK
Track 14
Filename D:\Media\Music\Releases\14 – 14 , PO Box _.wav
Peak level 0.1 %
Track quality 100.0 %
Copy CRC 10EB90BA
Copy OK
Track 15
Filename D:\Media\Music\Releases\15 – 15 , PO Box _ D_E_A_D.wav
Peak level 100.0 %
Track quality 99.9 %
Copy CRC EE986CAF
Copy OK
No errors occurred
End of status report


[islamvillage.com]_t_2051584.torrent
Торрент: Зарегистрирован ·  [ 2017-10-09 18:48 ] ·  a3e5c2a3775bb5d6a7f0984147fec215e3893783

18 KB

Статус: проверено
Скачан: 0 раз
Размер: 589 MB
Оценка: 
(Голосов: 0)
Сказали спасибо: 0  Спасибо
Похожие темы
[Профиль]    [ЛС]
Показать сообщения:    
Ответить на тему

Текущее время: Сегодня 05:52

Часовой пояс: GMT + 7



Вы не можете начинать темы
Вы не можете отвечать на сообщения
Вы не можете редактировать свои сообщения
Вы не можете удалять свои сообщения
Вы не можете голосовать в опросах
Вы не можете прикреплять файлы к сообщениям
Вы можете скачивать файлы


Windows 10 TH2 VLSC X (32Bits). | Jason Isaacs | Content at random