(Avant-garde Metal, Progressive Metal) [CD] Vulture Industries - Stranger Times - 2017, FLAC (tracks+.cue), lossless

Ответить на тему
Статистика раздачи [Обновить пиров]
Размер:  317 MB   |    Зарегистрирован:  1 год 3 месяца   |    Скачан:  0 раз

Полного источника не было: 9 месяцев 25 дней

 
   
 
 
 
Автор Сообщение

islamvillage.com

Создавать темы 11-Окт-2017 01:17

[Цитировать]

Vulture Industries / Stranger Times
Жанр: Avant-garde Metal, Progressive Metal
Носитель: CD
Страна-производитель диска (релиза): France
Год издания: 2017
Издатель (лейбл): Season Of Mist
Номер по каталогу: SOM 427D
Страна исполнителя (группы): Norway
Аудиокодек: FLAC (*.flac)
Тип рипа: tracks+.cue
Битрейт аудио: lossless
Продолжительность: 45:22
Источник (релизер): konsas [APL]
Наличие сканов в содержимом раздачи: нет
Треклист:
01. Tales Of Woe (4:37)
02. As The World Burns (5:22)
03. Strangers (7:10)
04. The Beacon (5:35)
05. Something Vile (4:17)
06. My Body, My Blood (2:27)
07. Gentle Touch Of A Killer (5:03)
08. Screaming Reflections (5:32)
09. Midnight Draws Near (5:20)

Лог создания рипа

Exact Audio Copy V1.0 beta 3 from 29. August 2011
EAC extraction logfile from 5. October 2017, 23:01
Vulture Industries / Stranger Times
Used drive : ASUS DRW-24B5ST Adapter: 2 ID: 0
Read mode : SecureUtilize accurate stream : YesDefeat audio cache : YesMake use of C2 pointers : No
Read offset correction : 6Overread into Lead-In and Lead-Out : NoFill up missing offset samples with silence : YesDelete leading and trailing silent blocks : NoNull samples used in CRC calculations : YesUsed interface : Native Win32 interface for Win NT & 2000Gap handling : Appended to previous track
Used output format : User Defined EncoderSelected bitrate : 128 kBit/sQuality : HighAdd ID3 tag : NoCommand line compressor : C:\Program Files (x86)\Exact Audio Copy\Flac\flac.exeAdditional command line options : -8 -V -T "ARTIST=%artist%" -T "TITLE=%title%" -T "ALBUM=%albumtitle%" -T "DATE=%year%" -T "TRACKNUMBER=%tracknr%" -T "GENRE=%genre%" -T "PERFORMER=%albuminterpret%" -T "COMPOSER=%composer%" %haslyrics%--tag-from-file=LYRICS="%lyricsfile%"%haslyrics% -T "ALBUMARTIST=%albumartist%" -T "DISCNUMBER=%cdnumber%" -T "TOTALDISCS=%totalcds%" -T "TOTALTRACKS=%numtracks%" -T "COMMENT=%comment%" %source% -o %dest%
TOC of the extracted CD
Track | Start | Length | Start sector | End sector --------------------------------------------------------- 1 | 0:00.00 | 4:37.00 | 0 | 20774 2 | 4:37.00 | 5:22.00 | 20775 | 44924 3 | 9:59.00 | 7:10.00 | 44925 | 77174 4 | 17:09.00 | 5:35.00 | 77175 | 102299 5 | 22:44.00 | 4:17.00 | 102300 | 121574 6 | 27:01.00 | 2:26.41 | 121575 | 132565 7 | 29:27.41 | 5:02.71 | 132566 | 155286 8 | 34:30.37 | 5:31.38 | 155287 | 180149 9 | 40:02.00 | 5:19.63 | 180150 | 204137
Track 1
Filename C:\Program Files (x86)\Exact Audio Copy\Flac\Vulture Industries - Stranger Times (2017) [CD-FLAC]\01 - Tales of Woe.wav
Pre-gap length 0:00:02.00
Peak level 95.6 % Extraction speed 5.2 X Track quality 100.0 % Test CRC 175073FB Copy CRC 175073FB Track not present in AccurateRip database Copy OK
Track 2
Filename C:\Program Files (x86)\Exact Audio Copy\Flac\Vulture Industries - Stranger Times (2017) [CD-FLAC]\02 - As the World Burns.wav
Peak level 100.0 % Extraction speed 5.2 X Track quality 99.9 % Test CRC 37A8CDB3 Copy CRC 37A8CDB3 Track not present in AccurateRip database Copy OK
Track 3
Filename C:\Program Files (x86)\Exact Audio Copy\Flac\Vulture Industries - Stranger Times (2017) [CD-FLAC]\03 - Strangers.wav
Peak level 100.0 % Extraction speed 7.0 X Track quality 100.0 % Test CRC 436DF495 Copy CRC 436DF495 Track not present in AccurateRip database Copy OK
Track 4
Filename C:\Program Files (x86)\Exact Audio Copy\Flac\Vulture Industries - Stranger Times (2017) [CD-FLAC]\04 - The Beacon.wav
Peak level 95.8 % Extraction speed 6.4 X Track quality 99.9 % Test CRC 8429E6ED Copy CRC 8429E6ED Track not present in AccurateRip database Copy OK
Track 5
Filename C:\Program Files (x86)\Exact Audio Copy\Flac\Vulture Industries - Stranger Times (2017) [CD-FLAC]\05 - Something Vile.wav
Peak level 94.4 % Extraction speed 7.7 X Track quality 100.0 % Test CRC D7D52B74 Copy CRC D7D52B74 Track not present in AccurateRip database Copy OK
Track 6
Filename C:\Program Files (x86)\Exact Audio Copy\Flac\Vulture Industries - Stranger Times (2017) [CD-FLAC]\06 - My Body, My Blood.wav
Peak level 91.3 % Extraction speed 7.2 X Track quality 100.0 % Test CRC 04AC51E3 Copy CRC 04AC51E3 Track not present in AccurateRip database Copy OK
Track 7
Filename C:\Program Files (x86)\Exact Audio Copy\Flac\Vulture Industries - Stranger Times (2017) [CD-FLAC]\07 - Gentle Touch of a Killer.wav
Peak level 95.7 % Extraction speed 8.5 X Track quality 100.0 % Test CRC FDE3A68A Copy CRC FDE3A68A Track not present in AccurateRip database Copy OK
Track 8
Filename C:\Program Files (x86)\Exact Audio Copy\Flac\Vulture Industries - Stranger Times (2017) [CD-FLAC]\08 - Screaming Reflections.wav
Peak level 95.9 % Extraction speed 9.0 X Track quality 100.0 % Test CRC 98D63584 Copy CRC 98D63584 Track not present in AccurateRip database Copy OK
Track 9
Filename C:\Program Files (x86)\Exact Audio Copy\Flac\Vulture Industries - Stranger Times (2017) [CD-FLAC]\09 - Midnight Draws Near.wav
Peak level 95.4 % Extraction speed 9.3 X Track quality 100.0 % Test CRC 730A8C37 Copy CRC 730A8C37 Track not present in AccurateRip database Copy OK
None of the tracks are present in the AccurateRip database
No errors occurred
End of status report
---- CUETools DB Plugin V2.1.3
[CTDB TOCID: 3_yFlvMK0gt5FwauhqAuTf1_GdM-] found, Submit result: 3_yFlvMK0gt5FwauhqAuTf1_GdM- has been confirmed[1d944567] (2/2) Accurately ripped
==== Log checksum 9344DB0BE06F99626AF011D662AE46CFCAF374822D13E9DBD18F5A5943F80330 ====

Содержание индексной карты (.CUE)

REM GENRE "Progressive Metal"REM DATE 2017REM DISCID 680AA109REM COMMENT "ExactAudioCopy v1.0b3"PERFORMER "Vulture Industries"TITLE "Stranger Times"FILE "01 - Tales of Woe.wav" WAVE TRACK 01 AUDIO TITLE "Tales of Woe" PERFORMER "Vulture Industries" INDEX 01 00:00:00FILE "02 - As the World Burns.wav" WAVE TRACK 02 AUDIO TITLE "As the World Burns" PERFORMER "Vulture Industries" INDEX 01 00:00:00FILE "03 - Strangers.wav" WAVE TRACK 03 AUDIO TITLE "Strangers" PERFORMER "Vulture Industries" INDEX 01 00:00:00FILE "04 - The Beacon.wav" WAVE TRACK 04 AUDIO TITLE "The Beacon" PERFORMER "Vulture Industries" INDEX 01 00:00:00FILE "05 - Something Vile.wav" WAVE TRACK 05 AUDIO TITLE "Something Vile" PERFORMER "Vulture Industries" INDEX 01 00:00:00FILE "06 - My Body, My Blood.wav" WAVE TRACK 06 AUDIO TITLE "My Body, My Blood" PERFORMER "Vulture Industries" INDEX 01 00:00:00FILE "07 - Gentle Touch of a Killer.wav" WAVE TRACK 07 AUDIO TITLE "Gentle Touch of a Killer" PERFORMER "Vulture Industries" INDEX 01 00:00:00FILE "08 - Screaming Reflections.wav" WAVE TRACK 08 AUDIO TITLE "Screaming Reflections" PERFORMER "Vulture Industries" INDEX 01 00:00:00FILE "09 - Midnight Draws Near.wav" WAVE TRACK 09 AUDIO TITLE "Midnight Draws Near" PERFORMER "Vulture Industries" INDEX 01 00:00:00


[islamvillage.com]_t_5462581.torrent
Торрент: Зарегистрирован ·  [ 2017-10-11 01:12 ] ·  901a1809feb5e60d44fcddaaf9420f5b7799f4f8

51 KB

Статус: проверено
Скачан: 0 раз
Размер: 317 MB
Оценка: 
(Голосов: 0)
Сказали спасибо: 0  Спасибо
Похожие темы
[Профиль]    [ЛС]
Показать сообщения:    
Ответить на тему

Текущее время: Сегодня 04:01

Часовой пояс: GMT + 7



Вы не можете начинать темы
Вы не можете отвечать на сообщения
Вы не можете редактировать свои сообщения
Вы не можете удалять свои сообщения
Вы не можете голосовать в опросах
Вы не можете прикреплять файлы к сообщениям
Вы можете скачивать файлы


Spielwerk +Teller Drehteller Spieluhr Tellerantrieb oh mein Papa | Watch movie | Economic Growth - 1861 Words