(Tech / Extreme Prog Metal) [CD] Counter-World Experience - Metronomicon - 2009, FLAC (tracks+.cue), lossless

Ответить на тему
Статистика раздачи [Обновить пиров]
Размер:  283 MB   |    Зарегистрирован:  1 год 1 месяц   |    Скачан:  0 раз

Полного источника не было: Никогда

 
   
 
 
 
Автор Сообщение

islamvillage.com

Создавать темы 21-Ноя-2017 23:54

[Цитировать]

Counter-World Experience - Metronomicon
Жанр: Tech / Extreme Prog Metal
Носитель: CD
Год издания: 2009
Издатель: Selfreleased
Страна группы: Germany
Аудиокодек: FLAC (*.flac)
Тип рипа: tracks+.cue
Битрейт аудио: lossless
Продолжительность: 00:45:52
ер: zeekernal
Наличие сканов в содержимом раздачи: да
Треклист:
01. Deus Ex Machina 3:29
02. Metronomicon 4:58
03. Fuego Barbarico 4:48
04. Metris 5:58
05. Quintus 4:12
06. Deep Waters 6:04
07. Digital Dust 5:12
08. Youth 4:39
09. End Of The Path 6:28

Лог создания рипа

Exact Audio Copy V0.99 prebeta 4 from 23. January 2008
EAC extraction logfile from 10. October 2009, 7:50
Counter-World Experience / Metronomicon
Used drive : HL-DT-STDVDRAM GH20LS15 Adapter: 2 ID: 0
Read mode : SecureUtilize accurate stream : YesDefeat audio cache : YesMake use of C2 pointers : No
Read offset correction : 667Overread into Lead-In and Lead-Out : NoFill up missing offset samples with silence : YesDelete leading and trailing silent blocks : NoNull samples used in CRC calculations : YesUsed interface : Installed external ASPI interfaceGap handling : Appended to previous track
Used output format : User Defined EncoderSelected bitrate : 768 kBit/sQuality : HighAdd ID3 tag : NoCommand line compressor : C:\Programme\Exact Audio Copy\FLAC\FLAC.EXEAdditional command line options : -6 -V -T "ARTIST=%a" -T "TITLE=%t" -T "ALBUM=%g" -T "DATE=%y" -T "TRACKNUMBER=%n" -T "GENRE=%m" -T "COMMENT=%e" %s -o %d
TOC of the extracted CD
Track | Start | Length | Start sector | End sector --------------------------------------------------------- 1 | 0:00.00 | 3:29.67 | 0 | 15741 2 | 3:29.67 | 4:58.25 | 15742 | 38116 3 | 8:28.17 | 4:48.58 | 38117 | 59774 4 | 13:17.00 | 5:58.50 | 59775 | 86674 5 | 19:15.50 | 4:12.62 | 86675 | 105636 6 | 23:28.37 | 6:04.00 | 105637 | 132936 7 | 29:32.37 | 5:12.38 | 132937 | 156374 8 | 34:45.00 | 4:39.02 | 156375 | 177301 9 | 39:24.02 | 6:28.23 | 177302 | 206424
Track 1
Filename S:\EAC\01 Deus Ex Machina.wav
Pre-gap length 0:00:02.00
Peak level 94.4 % Track quality 100.0 % Test CRC 8C551C4B Copy CRC 8C551C4B Accurately ripped (confidence 2) [470DFEF1] Copy OK
Track 2
Filename S:\EAC\02 Metronomicon.wav
Peak level 94.4 % Track quality 100.0 % Test CRC 48E918D2 Copy CRC 48E918D2 Accurately ripped (confidence 2) [030CFC46] Copy OK
Track 3
Filename S:\EAC\03 Fuego Barbбrico.wav
Peak level 94.4 % Track quality 100.0 % Test CRC B5EB8CB3 Copy CRC B5EB8CB3 Accurately ripped (confidence 2) [EF60024B] Copy OK
Track 4
Filename S:\EAC\04 Metis.wav
Pre-gap length 0:00:01.13
Peak level 94.4 % Track quality 100.0 % Test CRC CBD0BD6A Copy CRC CBD0BD6A Accurately ripped (confidence 2) [FD402634] Copy OK
Track 5
Filename S:\EAC\05 Quintus.wav
Peak level 94.4 % Track quality 100.0 % Test CRC 2896B92B Copy CRC 2896B92B Accurately ripped (confidence 2) [F2BB4C13] Copy OK
Track 6
Filename S:\EAC\06 Deep Waters.wav
Pre-gap length 0:00:02.25
Peak level 94.4 % Track quality 100.0 % Test CRC 986195AA Copy CRC 986195AA Accurately ripped (confidence 2) [5F1B102B] Copy OK
Track 7
Filename S:\EAC\07 Digital Dust.wav
Peak level 94.4 % Track quality 100.0 % Test CRC B0E0EAF9 Copy CRC B0E0EAF9 Accurately ripped (confidence 2) [BAEAEED6] Copy OK
Track 8
Filename S:\EAC\08 Youth.wav
Peak level 94.4 % Track quality 100.0 % Test CRC 1700834E Copy CRC 1700834E Accurately ripped (confidence 2) [DC0BE787] Copy OK
Track 9
Filename S:\EAC\09 End Of The Path.wav
Peak level 94.4 % Track quality 100.0 % Test CRC F14A684F Copy CRC F14A684F Accurately ripped (confidence 2) [FAA16353] Copy OK
All tracks accurately ripped
No errors occurred
End of status report

(.CUE)

REM GENRE "Metal Fusion"REM DATE 2009REM DISCID 6E0AC009REM COMMENT "ExactAudioCopy v0.99pb4"PERFORMER "Counter-World Experience"TITLE "Metronomicon"FILE "01 Deus Ex Machina.flac" WAVE TRACK 01 AUDIO TITLE "Deus Ex Machina" PERFORMER "Counter-World Experience" INDEX 01 00:00:00FILE "02 Metronomicon.flac" WAVE TRACK 02 AUDIO TITLE "Metronomicon" PERFORMER "Counter-World Experience" INDEX 01 00:00:00FILE "03 Fuego Barbarico.flac" WAVE TRACK 03 AUDIO TITLE "Fuego Barbбrico" PERFORMER "Counter-World Experience" INDEX 01 00:00:00 TRACK 04 AUDIO TITLE "Metis" PERFORMER "Counter-World Experience" INDEX 00 04:47:45FILE "04 Metis.flac" WAVE INDEX 01 00:00:00FILE "05 Quintus.flac" WAVE TRACK 05 AUDIO TITLE "Quintus" PERFORMER "Counter-World Experience" INDEX 01 00:00:00 TRACK 06 AUDIO TITLE "Deep Waters" PERFORMER "Counter-World Experience" INDEX 00 04:10:37FILE "06 Deep Waters.flac" WAVE INDEX 01 00:00:00FILE "07 Digital Dust.flac" WAVE TRACK 07 AUDIO TITLE "Digital Dust" PERFORMER "Counter-World Experience" INDEX 01 00:00:00FILE "08 Youth.flac" WAVE TRACK 08 AUDIO TITLE "Youth" PERFORMER "Counter-World Experience" INDEX 01 00:00:00FILE "09 End Of The Path.flac" WAVE TRACK 09 AUDIO TITLE "End Of The Path" PERFORMER "Counter-World Experience" INDEX 01 00:00:00

Лог проверки качества

AUDIOCHECKER v2.0 beta (build 457) - by Dester - opdester@freemail.hu~~~~~~~~~~~~~~~~~~~~~~~~~~~~~~~~~~-=== НЕ РЕДАКТИРУЙТЕ ЭТОТ ФАЙЛ! ===-
Путь: ...\Counter-World Experience - Metronomicon (2009)Flac
1 -=- 01 Deus Ex Machina.flac -=- CDDA (100%)2 -=- 02 Metronomicon.flac -=- CDDA (100%)3 -=- 03 Fuego Barbarico.flac -=- ERROR4 -=- 04 Metis.flac -=- CDDA (100%)5 -=- 05 Quintus.flac -=- CDDA (100%)6 -=- 06 Deep Waters.flac -=- CDDA (99%)7 -=- 07 Digital Dust.flac -=- CDDA (100%)8 -=- 08 Youth.flac -=- CDDA (100%)9 -=- 09 End Of The Path.flac -=- CDDA (100%)
Сводка 99,88% CDDA
63568740

Скриншот спектра частот

Об альбоме

Послушать

Состав

Benjamin Swenen - guitar, guitar-synth, programming
Sebastian Hoffman - six-string bass
Thorsten Harnitz - drums
Guest musicians
Cristian Felipe Carvacho - percussion
Jorg Sandner - piano and synthesizer
Michail Anton - violin
Florentin Chiran - violin
Winnie Kubart - viola
Ariane Spiegel - violoncello


[islamvillage.com]_t_5483230.torrent
Торрент: Зарегистрирован ·  [ 2017-11-21 23:48 ] ·  41148315a02200b9343aaec6acf713a7f9ed3487

12 KB

Статус: проверено
Скачан: 0 раз
Размер: 283 MB
Оценка: 
(Голосов: 0)
Сказали спасибо: 0  Спасибо
Похожие темы
[Профиль]    [ЛС]
Показать сообщения:    
Ответить на тему

Текущее время: Сегодня 03:49

Часовой пояс: GMT + 7



Вы не можете начинать темы
Вы не можете отвечать на сообщения
Вы не можете редактировать свои сообщения
Вы не можете удалять свои сообщения
Вы не можете голосовать в опросах
Вы не можете прикреплять файлы к сообщениям
Вы можете скачивать файлы


Cuscino Antidecubito In Poliuretano Espanso E Gel Per Sedia A Rotelle Carrozzina | Dragon Ball – Bảy Viên Ngọc Rồng chap 363 | Strong Brown Parcel Packing Packaging Tape Sellotape Carton Sealing 50Mm X 66M