(UK Hardcore) Al Storm Presents - Dark Shadows 4: The Monster Project - 2CD - 2017, FLAC (image+.cue), lossless

Ответить на тему
Статистика раздачи [Обновить пиров]
Размер:  1.19 GB   |    Зарегистрирован:  1 год 1 месяц   |    Скачан:  0 раз
Сидеров:  1  [  0 KB/s  ]   Подробная статистика скачивающих
 
   
 
 
 
Автор Сообщение

islamvillage.com

Создавать темы 07-Дек-2017 21:44

[Цитировать]

Al Storm Presents - Dark Shadows 4: The Monster Project
Жанр: UK Hardcore
Носитель: CD
Страна-производитель диска (релиза): UK
Год издания: 2017
Издатель (лейбл): 24/7 Hardcore
Номер по каталогу: 247HCLP006CD
Аудиокодек: FLAC (*.flac)
Тип рипа: image+.cue
Битрейт аудио: 1095 kbps
Продолжительность: 2:35:16 (1:16:50 + 1:18:25)
Источник (релизер): lightness11
Наличие сканов в содержимом раздачи: нет
Треклист:
CD1 - Unmixed
01. Al Storm x Whizzkid - Trigger [2:58]
02. Fracus & Darwin - Drop Dead [4:07]
03. SQUAD-E - Friday The 13th [4:15]
04. Rob IYF & Nobody meets Al Storm - The Monster Project [4:13]
05. M-Project & Al Storm - Distorted Chaos [3:15]
06. Macks Wolf - The Spider [3:53]
07. Eufeion - Masquerade Of The Damned [3:39]
08. Darkman vs Deadhead - The Mummy [3:28]
09. DJ Demand - Dark & Light (Re Con Remix) [4:01]
10. MY3RS - Jack The Ripper [3:29]
11. Rob IYF & MC Riddle - Murder Ride [3:44]
12. Daniel Seven - Juggernaut [3:26]
13. Al Storm x DJ Dreem - Phantasm [4:19]
14. Mizel & Wilsxn - Gods & Monsters [2:45]
15. Finnbarr - Do Not Enter [4:38]
16. DJ Shimamura & Al Storm - Godzilla! (Olly P Remix) [4:16]
17. Damian LH - Float (Del Toro Mix) [4:57]
18. Al Storm x dot.MAX - The Bat [3:16]
19. Del Toro - Ghost Town [4:15]
20. Scott Brown & Al Storm - Strangled To Death [3:55]
CD2 - The Gods & Monsters Mix

скрытый текст

1. SQUAD E - Psycho [1:47]
2. Damian LH - Float (Del Toro Mix) [2:08]
3. Nefarious - Madness [1:14]
4. Black & White - Zomboid [1:44]
5. Rob IYF & Nobody meets Al Storm - The Monster Project [2:19]
6. Darkman vs Deadhead - The Mummy [1:17]
7. DJ Demand - Dark & Light (Re Con Remix) [2:54]
8. Hotchkiss & Al Storm - Something Demonic [1:15]
9. Rob IYF & MC Riddle - Murder Ride [1:42]
10. Fracus & Darwin - Drop Dead [2:02]
11. Rob IYF - Believe In Evil [2:09]
12. Yade & Al Storm - Unleash The Beast [2:21]
13. SQUAD E - Friday The 13th [1:31]
14. M-Project & Al Storm - Distorted Chaos [2:25]
15. Eufeion - Masquerade Of The Damned [1:19]
16. Daniel Seven - Juggernaut [1:46]
17. Alex Prospect & Al Storm - Frankenstein [1:28]
18. Jakka B - Outbreak [1:26]
19. Riko vs Matt Milla - Hide & Seek [1:18]
20. Al Storm x dot.MAX - The Bat [2:24]
21. MY3RS - Jack The Ripper [1:58]
22. Al Storm & MC Whizzkid - Trigger [2:10]
23. DJ Dreem vs Al Storm - Phantasm [2:41]
24. Black & White - The Awakening [3:03]
25. Rob IYF & Nobody feat MC Riddle - Dying Time [2:32]
26. Scott Brown & Al Storm - The Blob [1:03]
27. Riko vs Evo - Welcome To The Shadows [1:31]
28. Macks Wolf - The Spider [3:03]
29. Scott Brown & Al Storm - Strangled To Death [2:08]
30. Finnbarr - Do Not Enter [1:47]
31. Riko & Hitman - Unseen [1:14]
32. Mito Moro & Al Storm - The Corpse Grinders [1:15]
33. Del Toro - Ghost Town [2:30]
34. Al Storm - Beetlejuice [2:00]
35. Robert Dyson meets Al Storm - 7th Heaven [1:26]
36. DJ Shimamura & Al Storm - Godzilla (Olly P Remix) [1:48]
37. Nefarious vs Deadhead - Candyman [2:14]
38. Sour Frequencies - Kills Clowns (175 Mix) [0:51]
39. Mizel & Wilsxn - Gods & Monsters [1:26]
40. S3RL & Al Storm - Eh!? [1:15]
41. Deadhead - Severed Skullfuck [1:47]
42. Nefarious meets MY3RS - Future Diablo [2:11]

Лог создания рипа

CD1

Exact Audio Copy V1.0 beta 3 from 29. August 2011
EAC extraction logfile from 1. December 2017, 19:18
Various / Dark Shadows 4: The Monster Project
Used drive : MATSHITABD-MLT UJ260AF Adapter: 0 ID: 0
Read mode : Secure
Utilize accurate stream : Yes
Defeat audio cache : Yes
Make use of C2 pointers : No
Read offset correction : 103
Overread into Lead-In and Lead-Out : No
Fill up missing offset samples with silence : Yes
Delete leading and trailing silent blocks : No
Null samples used in CRC calculations : Yes
Used interface : Native Win32 interface for Win NT & 2000
Used output format : User Defined Encoder
Selected bitrate : 1024 kBit/s
Quality : High
Add ID3 tag : No
Command line compressor : C:\Program Files (x86)\FLAC\flac.exe
Additional command line options : -V -8 -T "Date=%year%" -T "Genre=%genre%" %source%
TOC of the extracted CD
Track | Start | Length | Start sector | End sector
---------------------------------------------------------
1 | 0:00.00 | 2:58.26 | 0 | 13375
2 | 2:58.26 | 4:07.15 | 13376 | 31915
3 | 7:05.41 | 4:15.31 | 31916 | 51071
4 | 11:20.72 | 4:13.37 | 51072 | 70083
5 | 15:34.34 | 3:15.12 | 70084 | 84720
6 | 18:49.46 | 3:52.55 | 84721 | 102175
7 | 22:42.26 | 3:39.36 | 102176 | 118636
8 | 26:21.62 | 3:28.18 | 118637 | 134254
9 | 29:50.05 | 4:01.25 | 134255 | 152354
10 | 33:51.30 | 3:29.36 | 152355 | 168065
11 | 37:20.66 | 3:44.02 | 168066 | 184867
12 | 41:04.68 | 3:25.39 | 184868 | 200281
13 | 44:30.32 | 4:18.40 | 200282 | 219671
14 | 48:48.72 | 2:45.25 | 219672 | 232071
15 | 51:34.22 | 4:38.02 | 232072 | 252923
16 | 56:12.24 | 4:16.01 | 252924 | 272124
17 | 60:28.25 | 4:57.08 | 272125 | 294407
18 | 65:25.33 | 3:15.46 | 294408 | 309078
19 | 68:41.04 | 4:14.40 | 309079 | 328168
20 | 72:55.44 | 3:55.06 | 328169 | 345799
Range status and errors
Selected range
Filename F:\Music\[Lossless]\Al Storm - Dark Shadows 4 The Monster Project [247HCLP006CD] (2017)\CD 1\[CD 1] Various - Dark Shadows 4 The Monster Project.wav
Peak level 100.0 %
Extraction speed 4.6 X
Range quality 100.0 %
Test CRC BEA3F2B0
Copy CRC BEA3F2B0
Copy OK
No errors occurred
AccurateRip summary
Track 1 not present in database
Track 2 not present in database
Track 3 not present in database
Track 4 not present in database
Track 5 not present in database
Track 6 not present in database
Track 7 not present in database
Track 8 not present in database
Track 9 not present in database
Track 10 not present in database
Track 11 not present in database
Track 12 not present in database
Track 13 not present in database
Track 14 not present in database
Track 15 not present in database
Track 16 not present in database
Track 17 not present in database
Track 18 not present in database
Track 19 not present in database
Track 20 not present in database
None of the tracks are present in the AccurateRip database
End of status report
---- CUETools DB Plugin V2.1.3
[CTDB TOCID: bbXwy1JyX.Lz0zihm0ZQBhjXthQ-] found
[bdb2c4f5] (1/1) No match
==== Log checksum 2B67B1844F64D1895A80CC715C485E788DC254703FC669C13CA2AC53592E048A ====

CD2

Exact Audio Copy V1.0 beta 3 from 29. August 2011
EAC extraction logfile from 1. December 2017, 20:24
Various / Dark Shadows 4: The Monster Project
Used drive : MATSHITABD-MLT UJ260AF Adapter: 0 ID: 0
Read mode : Secure
Utilize accurate stream : Yes
Defeat audio cache : Yes
Make use of C2 pointers : No
Read offset correction : 103
Overread into Lead-In and Lead-Out : No
Fill up missing offset samples with silence : Yes
Delete leading and trailing silent blocks : No
Null samples used in CRC calculations : Yes
Used interface : Native Win32 interface for Win NT & 2000
Used output format : User Defined Encoder
Selected bitrate : 1024 kBit/s
Quality : High
Add ID3 tag : No
Command line compressor : C:\Program Files (x86)\FLAC\flac.exe
Additional command line options : -V -8 -T "Date=%year%" -T "Genre=%genre%" %source%
TOC of the extracted CD
Track | Start | Length | Start sector | End sector
---------------------------------------------------------
1 | 0:00.00 | 1:47.22 | 0 | 8046
2 | 1:47.22 | 2:07.47 | 8047 | 17618
3 | 3:54.69 | 1:13.71 | 17619 | 23164
4 | 5:08.65 | 1:43.42 | 23165 | 30931
5 | 6:52.32 | 2:19.31 | 30932 | 41387
6 | 9:11.63 | 1:16.69 | 41388 | 47156
7 | 10:28.57 | 2:53.71 | 47157 | 60202
8 | 13:22.53 | 1:15.18 | 60203 | 65845
9 | 14:37.71 | 1:42.35 | 65846 | 73530
10 | 16:20.31 | 2:02.27 | 73531 | 82707
11 | 18:22.58 | 2:09.01 | 82708 | 92383
12 | 20:31.59 | 2:21.02 | 92384 | 102960
13 | 22:52.61 | 1:31.00 | 102961 | 109785
14 | 24:23.61 | 2:25.25 | 109786 | 120685
15 | 26:49.11 | 1:19.08 | 120686 | 126618
16 | 28:08.19 | 1:45.62 | 126619 | 134555
17 | 29:54.06 | 1:27.46 | 134556 | 141126
18 | 31:21.52 | 1:26.06 | 141127 | 147582
19 | 32:47.58 | 1:17.57 | 147583 | 153414
20 | 34:05.40 | 2:23.71 | 153415 | 164210
21 | 36:29.36 | 1:58.15 | 164211 | 173075
22 | 38:27.51 | 2:10.30 | 173076 | 182855
23 | 40:38.06 | 2:41.12 | 182856 | 194942
24 | 43:19.18 | 3:02.62 | 194943 | 208654
25 | 46:22.05 | 2:31.52 | 208655 | 220031
26 | 48:53.57 | 1:03.26 | 220032 | 224782
27 | 49:57.08 | 1:31.27 | 224783 | 231634
28 | 51:28.35 | 3:03.33 | 231635 | 245392
29 | 54:31.68 | 2:08.29 | 245393 | 255021
30 | 56:40.22 | 1:47.35 | 255022 | 263081
31 | 58:27.57 | 1:14.11 | 263082 | 268642
32 | 59:41.68 | 1:14.74 | 268643 | 274266
33 | 60:56.67 | 2:30.25 | 274267 | 285541
34 | 63:27.17 | 1:59.58 | 285542 | 294524
35 | 65:27.00 | 1:26.00 | 294525 | 300974
36 | 66:53.00 | 1:47.41 | 300975 | 309040
37 | 68:40.41 | 2:14.30 | 309041 | 319120
38 | 70:54.71 | 0:51.00 | 319121 | 322945
39 | 71:45.71 | 1:26.00 | 322946 | 329395
40 | 73:11.71 | 1:15.18 | 329396 | 335038
41 | 74:27.14 | 1:47.24 | 335039 | 343087
42 | 76:14.38 | 2:11.06 | 343088 | 352918
Range status and errors
Selected range
Filename F:\Music\[Lossless]\Al Storm - Dark Shadows 4 The Monster Project [247HCLP006CD] (2017)\CD 2\[CD 2] Various - Dark Shadows 4 The Monster Project.wav
Peak level 100.0 %
Extraction speed 4.6 X
Range quality 100.0 %
Test CRC 416F77E2
Copy CRC 416F77E2
Copy OK
No errors occurred
AccurateRip summary
Track 1 not present in database
Track 2 not present in database
Track 3 not present in database
Track 4 not present in database
Track 5 not present in database
Track 6 not present in database
Track 7 not present in database
Track 8 not present in database
Track 9 not present in database
Track 10 not present in database
Track 11 not present in database
Track 12 not present in database
Track 13 not present in database
Track 14 not present in database
Track 15 not present in database
Track 16 not present in database
Track 17 not present in database
Track 18 not present in database
Track 19 not present in database
Track 20 not present in database
Track 21 not present in database
Track 22 not present in database
Track 23 not present in database
Track 24 not present in database
Track 25 not present in database
Track 26 not present in database
Track 27 not present in database
Track 28 not present in database
Track 29 not present in database
Track 30 not present in database
Track 31 not present in database
Track 32 not present in database
Track 33 not present in database
Track 34 not present in database
Track 35 not present in database
Track 36 not present in database
Track 37 not present in database
Track 38 not present in database
Track 39 not present in database
Track 40 not present in database
Track 41 not present in database
Track 42 not present in database
None of the tracks are present in the AccurateRip database
End of status report
---- CUETools DB Plugin V2.1.3
[CTDB TOCID: Vex72wlrN.apAe7l4tGBaw7_Y5I-] found, Submit result: Vex72wlrN.apAe7l4tGBaw7_Y5I- has been confirmed
[0b3c2456] (1/1) Accurately ripped
==== Log checksum D65C3F0DE19F8796F8F9D3FB355029DDAF81FC28DD7AD6DAFD13588820602639 ====

Содержание индексной карты (.CUE)

CD1

REM GENRE Hardcore
REM DATE 2017
REM DISCID 19120214
REM COMMENT ExactAudioCopy v1.0b3
PERFORMER "Various"
TITLE "Dark Shadows 4: The Monster Project"
FILE "[CD 1] Various - Dark Shadows 4 The Monster Project.flac" WAVE
TRACK 01 AUDIO
TITLE "Trigger"
PERFORMER "Al Storm & MC Whizzkid"
INDEX 01 00:00:00
TRACK 02 AUDIO
TITLE "Drop Dead"
PERFORMER "Fracus & Darwin"
INDEX 00 02:56:26
INDEX 01 02:58:26
TRACK 03 AUDIO
TITLE "Friday The 13th"
PERFORMER "Squad-E"
INDEX 00 07:03:41
INDEX 01 07:05:41
TRACK 04 AUDIO
TITLE "The Monster Project"
PERFORMER "Rob IYF & Nobody Meets Al Storm"
INDEX 00 11:18:72
INDEX 01 11:20:72
TRACK 05 AUDIO
TITLE "Distorted Chaos"
PERFORMER "M-Project & Al Storm"
INDEX 00 15:32:34
INDEX 01 15:34:34
TRACK 06 AUDIO
TITLE "The Spider"
PERFORMER "Macks Wolf"
INDEX 00 18:47:46
INDEX 01 18:49:46
TRACK 07 AUDIO
TITLE "Masquerade Of The Damned"
PERFORMER "Eufeion"
INDEX 00 22:40:26
INDEX 01 22:42:26
TRACK 08 AUDIO
TITLE "The Mummy"
PERFORMER "Darkman vs Deadhead"
INDEX 00 26:19:62
INDEX 01 26:21:62
TRACK 09 AUDIO
TITLE "Dark & Light (Re Con Remix)"
PERFORMER "DJ Demand"
INDEX 00 29:48:05
INDEX 01 29:50:05
TRACK 10 AUDIO
TITLE "Jack The Ripper"
PERFORMER "MY3RS"
INDEX 00 33:49:30
INDEX 01 33:51:30
TRACK 11 AUDIO
TITLE "Murder Ride"
PERFORMER "Rob IYF & MC Riddle"
INDEX 00 37:18:66
INDEX 01 37:20:66
TRACK 12 AUDIO
TITLE "Juggernaut"
PERFORMER "Daniel Seven"
INDEX 00 41:02:68
INDEX 01 41:04:68
TRACK 13 AUDIO
TITLE "Phantasm"
PERFORMER "Al Storm X DJ Dreem"
INDEX 00 44:28:32
INDEX 01 44:30:32
TRACK 14 AUDIO
TITLE "Gods & Monsters"
PERFORMER "Mizel & WILSXN"
INDEX 00 48:46:72
INDEX 01 48:48:72
TRACK 15 AUDIO
TITLE "Do Not Enter"
PERFORMER "Finnbarr"
INDEX 00 51:32:22
INDEX 01 51:34:22
TRACK 16 AUDIO
TITLE "Godzilla! (Olly P Remix)"
PERFORMER "DJ Shimamura & Al Storm"
INDEX 00 56:10:24
INDEX 01 56:12:24
TRACK 17 AUDIO
TITLE "Float (Del Toro Mix)"
PERFORMER "Damian LH"
INDEX 00 60:26:25
INDEX 01 60:28:25
TRACK 18 AUDIO
TITLE "The Bat"
PERFORMER "Al Storm X Dot.Max"
INDEX 00 65:23:33
INDEX 01 65:25:33
TRACK 19 AUDIO
TITLE "Ghost Town"
PERFORMER "Del Toro"
INDEX 00 68:39:04
INDEX 01 68:41:04
TRACK 20 AUDIO
TITLE "Strangled To Death"
PERFORMER "Scott Brown & Al Storm"
INDEX 00 72:53:44
INDEX 01 72:55:44

CD2

REM GENRE Hardcore
REM DATE 2017
REM DISCID 7912612A
REM COMMENT ExactAudioCopy v1.0b3
PERFORMER "Various"
TITLE "Dark Shadows 4: The Monster Project"
FILE "[CD 2] Various - Dark Shadows 4 The Monster Project.flac" WAVE
TRACK 01 AUDIO
TITLE "Psycho"
PERFORMER "Squad E"
INDEX 01 00:00:00
TRACK 02 AUDIO
TITLE "Float (Del Toro Mix)"
PERFORMER "Damian LH"
INDEX 01 01:47:22
TRACK 03 AUDIO
TITLE "Madness"
PERFORMER "Nefarious"
INDEX 01 03:54:69
TRACK 04 AUDIO
TITLE "Zomboid"
PERFORMER "Black & White"
INDEX 01 05:08:65
TRACK 05 AUDIO
TITLE "The Monster Project"
PERFORMER "Rob IYF & Nobody Meets Al Storm"
INDEX 01 06:52:32
TRACK 06 AUDIO
TITLE "The Mummy"
PERFORMER "Darkman vs Deadhead"
INDEX 01 09:11:63
TRACK 07 AUDIO
TITLE "Dark & Light (Re Con Remix)"
PERFORMER "DJ Demand"
INDEX 01 10:28:57
TRACK 08 AUDIO
TITLE "Something Demonic"
PERFORMER "Hotchkiss & Al Storm"
INDEX 01 13:22:53
TRACK 09 AUDIO
TITLE "Murder Ride"
PERFORMER "Rob IYF & MC Riddle"
INDEX 01 14:37:71
TRACK 10 AUDIO
TITLE "Drop Dead"
PERFORMER "Fracus & Darwin"
INDEX 01 16:20:31
TRACK 11 AUDIO
TITLE "Believe In Evil"
PERFORMER "Rob IYF"
INDEX 01 18:22:58
TRACK 12 AUDIO
TITLE "Unleash The Beast"
PERFORMER "Yade & Al Storm"
INDEX 01 20:31:59
TRACK 13 AUDIO
TITLE "Friday The 13th"
PERFORMER "Squad E"
INDEX 01 22:52:61
TRACK 14 AUDIO
TITLE "Distorted Chaos"
PERFORMER "M-Project & Al Storm"
INDEX 01 24:23:61
TRACK 15 AUDIO
TITLE "Masquerade Of The Damned"
PERFORMER "Eufeion"
INDEX 01 26:49:11
TRACK 16 AUDIO
TITLE "Juggernaut"
PERFORMER "Daniel Seven"
INDEX 01 28:08:19
TRACK 17 AUDIO
TITLE "Frankenstein"
PERFORMER "Alex Prospect & Al Storm"
INDEX 01 29:54:06
TRACK 18 AUDIO
TITLE "Outbreak"
PERFORMER "Jakka B"
INDEX 01 31:21:52
TRACK 19 AUDIO
TITLE "Hide & Seek"
PERFORMER "Riko vs Matt Milla"
INDEX 01 32:47:58
TRACK 20 AUDIO
TITLE "The Bat"
PERFORMER "Al Storm & Dot.Max"
INDEX 01 34:05:40
TRACK 21 AUDIO
TITLE "Jack The Ripper"
PERFORMER "MY3RS"
INDEX 01 36:29:36
TRACK 22 AUDIO
TITLE "Trigger"
PERFORMER "Al Storm & MC Whizzkid"
INDEX 01 38:27:51
TRACK 23 AUDIO
TITLE "Phantasm"
PERFORMER "DJ Dreem vs Al Storm"
INDEX 01 40:38:06
TRACK 24 AUDIO
TITLE "The Awakening"
PERFORMER "Black & White"
INDEX 01 43:19:18
TRACK 25 AUDIO
TITLE "Dying Time"
PERFORMER "Rob IYF & Nobody Feat. MC Riddle"
INDEX 01 46:22:05
TRACK 26 AUDIO
TITLE "The Blob"
PERFORMER "Scott Brown & Al Storm"
INDEX 01 48:53:57
TRACK 27 AUDIO
TITLE "Welcome To The Shadows"
PERFORMER "Riko vs Evo"
INDEX 01 49:57:08
TRACK 28 AUDIO
TITLE "The Spider"
PERFORMER "Macks Wolf"
INDEX 01 51:28:35
TRACK 29 AUDIO
TITLE "Strangled To Death"
PERFORMER "Scott Brown & Al Storm"
INDEX 01 54:31:68
TRACK 30 AUDIO
TITLE "Do Not Enter"
PERFORMER "Finnbarr"
INDEX 01 56:40:22
TRACK 31 AUDIO
TITLE "Unseen"
PERFORMER "Riko & Hitman"
INDEX 01 58:27:57
TRACK 32 AUDIO
TITLE "The Corpse Grinders"
PERFORMER "Mito Moro & Al Storm"
INDEX 01 59:41:68
TRACK 33 AUDIO
TITLE "Ghost Town"
PERFORMER "Del Toro"
INDEX 01 60:56:67
TRACK 34 AUDIO
TITLE "Beetlejuice"
PERFORMER "Al Storm"
INDEX 01 63:27:17
TRACK 35 AUDIO
TITLE "7th Heaven"
PERFORMER "Robert Dyson Meets Al Storm"
INDEX 01 65:27:00
TRACK 36 AUDIO
TITLE "Godzilla (Olly P Remix)"
PERFORMER "DJ Shimamura & Al Storm"
INDEX 01 66:53:00
TRACK 37 AUDIO
TITLE "Candyman"
PERFORMER "Nefarious vs Deadhead"
INDEX 01 68:40:41
TRACK 38 AUDIO
TITLE "Kills Clowns (175 Mix)"
PERFORMER "Sour Frequencies"
INDEX 01 70:54:71
TRACK 39 AUDIO
TITLE "Gods & Monsters"
PERFORMER "Mizel & WILSXN"
INDEX 01 71:45:71
TRACK 40 AUDIO
TITLE "Eh!?"
PERFORMER "S3RL & Al Storm"
INDEX 01 73:11:71
TRACK 41 AUDIO
TITLE "Severed Skullfuck"
PERFORMER "Deadhead"
INDEX 01 74:27:14
TRACK 42 AUDIO
TITLE "Future Diablo"
PERFORMER "Nefarious Meets MY3RS"
INDEX 01 76:14:38

Лог проверки качества

CD1

AUDIOCHECKER v2.0 beta (build 457) - by Dester - opdester@freemail.hu
~~~~~~~~~~~~~~~~~~~~~~~~~~~~~~~~~~
-=== DO NOT EDIT THIS FILE! ===-
Path: ...\CD 1
1 -=- [CD 1] Various - Dark Shadows 4 The Monster Project.flac -=- CDDA (100%)
135790356

CD2

AUDIOCHECKER v2.0 beta (build 457) - by Dester - opdester@freemail.hu
~~~~~~~~~~~~~~~~~~~~~~~~~~~~~~~~~~
-=== DO NOT EDIT THIS FILE! ===-
Path: ...\CD 2
1 -=- [CD 2] Various - Dark Shadows 4 The Monster Project.flac -=- CDDA (100%)
135790820


[islamvillage.com]_t_5487886.torrent
Торрент: Зарегистрирован ·  [ 2017-12-07 21:42 ] ·  be091d31f867aa003c368a36a89e5736ea42061f

13 KB

Статус: проверено
Скачан: 0 раз
Размер: 1.19 GB
Оценка: 
(Голосов: 0)
Сказали спасибо: 0  Спасибо
Похожие темы
[Профиль]    [ЛС]
Показать сообщения:    
Ответить на тему

Текущее время: Сегодня 02:32

Часовой пояс: GMT + 7



Вы не можете начинать темы
Вы не можете отвечать на сообщения
Вы не можете редактировать свои сообщения
Вы не можете удалять свои сообщения
Вы не можете голосовать в опросах
Вы не можете прикреплять файлы к сообщениям
Вы можете скачивать файлы


Marry Me | Economics - 1258 Words | Economics and Perfectly Competitive Firm