(Ska) [CD] Madness - Full House: The Very Best of Madness [Comp] - 2017, FLAC (tracks+.cue), lossless

Ответить на тему
Статистика раздачи [Обновить пиров]
Размер:  1 GB   |    Зарегистрирован:  1 год 1 месяц   |    Скачан:  0 раз

Полного источника не было: Никогда

 
   
 
 
 
Автор Сообщение

islamvillage.com

Создавать темы 12-Дек-2017 20:24

[Цитировать]

Madness / Full House: The Very Best of Madness [Comp]
Жанр: Ska
Носитель: CD
Страна-производитель диска (релиза): Великобритания
Год издания: 2017
Издатель (лейбл): Union Square Music
Номер по каталогу: USMTVDCD018
Страна исполнителя (группы): Великобритания
Аудиокодек: FLAC (*.flac)
Тип рипа: tracks+.cue
Битрейт аудио: lossless
Продолжительность: 02:23:44
Источник (релизер): LouderPlease @ red
Наличие сканов в содержимом раздачи: нет

ТреклистCD1

01. The Prince 03:2002. One Step Beyond 02:1803. My Girl 02:4504. Bed and Breakfast Man 02:3305. Night Boat To Cairo 03:3106. Madness 02:3807. Baggy Trousers 02:4608. Embarrassment 03:1109. The Return of the Los Palmas 7 02:0310. Grey Day 03:3911. Shut Up 04:0612. It Must Be Love 03:2013. Cardiac Arrest 02:5214. House of Fun 02:4615. Driving In My Car 03:1816. Our House 03:2317. Tomorrow's (Just Another Day) 03:1118. Wings of a Dove 02:5919. The Sun and the Rain 03:2820. Michael Caine 03:4021. One Better Day 04:06

CD2

01. Uncle Sam 04:1502. Yesterday's Men 04:3603. (Waiting For The) Ghost Train 03:4304. Sarah's Song (From Our House Musical) 03:4405. Lovestruck 03:5006. Johnny the Horse 03:2007. Drip Fed Fred 04:3108. Simple Equation (From Our House Musical) 04:0209. Girl Why Don't Ya 03:0510. NW5 04:1411. Dust Devil 03:4412. Forever Young 04:3513. Sugar And Spice 02:5214. My Girl 2 02:5115. Never Knew Your Name 03:2816. How Can I Tell You 03:1817. Misery 03:1618. La Luna 03:3819. Mr. Apples 03:3920. Can't Touch Us Now 04:1121. Another Version of Me 02:39

Лог создания рипаCD1

Exact Audio Copy V1.3 from 2. September 2016
EAC extraction logfile from 7. December 2017, 15:51
Madness / Full House - The Very Best of Madness
Used drive : hp BDDVDRW CH28N Adapter: 1 ID: 0
Read mode : SecureUtilize accurate stream : YesDefeat audio cache : YesMake use of C2 pointers : No
Read offset correction : 667Overread into Lead-In and Lead-Out : NoFill up missing offset samples with silence : YesDelete leading and trailing silent blocks : NoNull samples used in CRC calculations : YesUsed interface : Native Win32 interface for Win NT & 2000Gap handling : Appended to previous track
Used output format : User Defined EncoderSelected bitrate : 1024 kBit/sQuality : HighAdd ID3 tag : NoCommand line compressor : C:\Program Files (x86)\Exact Audio Copy\Flac\flac.exeAdditional command line options : -8 -e -p -V -T "ARTIST=%artist%" -T "TITLE=%title%" -T "ALBUM=%albumtitle%" -T "DATE=%year%" -T "TRACKNUMBER=%tracknr%" -T "GENRE=%genre%" -T "PERFORMER=%albuminterpret%" -T "COMPOSER=%composer%" %haslyrics%--tag-from-file=LYRICS="%lyricsfile%"%haslyrics% -T "ALBUMARTIST=%albumartist%" -T "DISCNUMBER=%cdnumber%" -T "TOTALDISCS=%totalcds%" -T "TOTALTRACKS=%numtracks%" -T "COMMENT=%comment%" %source% -o %dest%
TOC of the extracted CD
Track | Start | Length | Start sector | End sector --------------------------------------------------------- 1 | 0:00.00 | 3:20.27 | 0 | 15026 2 | 3:20.27 | 2:18.74 | 15027 | 25450 3 | 5:39.26 | 2:46.06 | 25451 | 37906 4 | 8:25.32 | 2:33.33 | 37907 | 49414 5 | 10:58.65 | 3:32.16 | 49415 | 65330 6 | 14:31.06 | 2:38.47 | 65331 | 77227 7 | 17:09.53 | 2:47.31 | 77228 | 89783 8 | 19:57.09 | 3:12.37 | 89784 | 104220 9 | 23:09.46 | 2:33.04 | 104221 | 115699 10 | 25:42.50 | 3:40.49 | 115700 | 132248 11 | 29:23.24 | 4:07.31 | 132249 | 150804 12 | 33:30.55 | 3:21.43 | 150805 | 165922 13 | 36:52.23 | 2:53.65 | 165923 | 178962 14 | 39:46.13 | 2:58.55 | 178963 | 192367 15 | 42:44.68 | 3:18.15 | 192368 | 207232 16 | 46:03.08 | 3:24.14 | 207233 | 222546 17 | 49:27.22 | 3:12.29 | 222547 | 236975 18 | 52:39.51 | 2:59.25 | 236976 | 250425 19 | 55:39.01 | 3:28.27 | 250426 | 266052 20 | 59:07.28 | 3:40.71 | 266053 | 282623 21 | 62:48.24 | 4:06.52 | 282624 | 301125
Track 1
Filename C:\utorrent2\Madness - Full House - The Very Best Of Madness (2017) [FLAC]\CD1\01 - The Prince.wav
Pre-gap length 0:00:02.00
Peak level 94.3 % Extraction speed 1.9 X Track quality 100.0 % Test CRC 38F983E3 Copy CRC 38F983E3 Track not present in AccurateRip database Copy OK
Track 2
Filename C:\utorrent2\Madness - Full House - The Very Best Of Madness (2017) [FLAC]\CD1\02 - One Step Beyond.wav
Pre-gap length 0:00:01.14
Peak level 94.3 % Extraction speed 1.9 X Track quality 100.0 % Test CRC 02272FF6 Copy CRC 02272FF6 Track not present in AccurateRip database Copy OK
Track 3
Filename C:\utorrent2\Madness - Full House - The Very Best Of Madness (2017) [FLAC]\CD1\03 - My Girl.wav
Pre-gap length 0:00:01.10
Peak level 94.3 % Extraction speed 2.1 X Track quality 100.0 % Test CRC E95CD8CC Copy CRC E95CD8CC Track not present in AccurateRip database Copy OK
Track 4
Filename C:\utorrent2\Madness - Full House - The Very Best Of Madness (2017) [FLAC]\CD1\04 - Bed And Breakfast Man.wav
Pre-gap length 0:00:01.14
Peak level 91.0 % Extraction speed 2.2 X Track quality 100.0 % Test CRC 4ABF8D7F Copy CRC 4ABF8D7F Track not present in AccurateRip database Copy OK
Track 5
Filename C:\utorrent2\Madness - Full House - The Very Best Of Madness (2017) [FLAC]\CD1\05 - Night Boat To Cairo.wav
Pre-gap length 0:00:01.61
Peak level 89.1 % Extraction speed 2.5 X Track quality 100.0 % Test CRC A2CD4C8A Copy CRC A2CD4C8A Track not present in AccurateRip database Copy OK
Track 6
Filename C:\utorrent2\Madness - Full House - The Very Best Of Madness (2017) [FLAC]\CD1\06 - Madness.wav
Pre-gap length 0:00:01.06
Peak level 94.3 % Extraction speed 2.4 X Track quality 100.0 % Test CRC 01445E55 Copy CRC 01445E55 Track not present in AccurateRip database Copy OK
Track 7
Filename C:\utorrent2\Madness - Full House - The Very Best Of Madness (2017) [FLAC]\CD1\07 - Baggy Trousers.wav
Pre-gap length 0:00:01.69
Peak level 91.1 % Extraction speed 2.6 X Track quality 100.0 % Test CRC 3173E6FD Copy CRC 3173E6FD Track not present in AccurateRip database Copy OK
Track 8
Filename C:\utorrent2\Madness - Full House - The Very Best Of Madness (2017) [FLAC]\CD1\08 - Embarrassment.wav
Pre-gap length 0:00:01.52
Peak level 94.3 % Extraction speed 2.8 X Track quality 100.0 % Test CRC A059342A Copy CRC A059342A Track not present in AccurateRip database Copy OK
Track 9
Filename C:\utorrent2\Madness - Full House - The Very Best Of Madness (2017) [FLAC]\CD1\09 - The Return Of The Los Palmas 7.wav
Pre-gap length 0:00:01.00
Peak level 91.1 % Extraction speed 2.3 X Track quality 99.9 % Test CRC D88F32A5 Copy CRC D88F32A5 Track not present in AccurateRip database Copy OK
Track 10
Filename C:\utorrent2\Madness - Full House - The Very Best Of Madness (2017) [FLAC]\CD1\10 - Grey Day.wav
Pre-gap length 0:00:01.60
Peak level 94.3 % Extraction speed 3.0 X Track quality 100.0 % Test CRC B83E8A5E Copy CRC B83E8A5E Track not present in AccurateRip database Copy OK
Track 11
Filename C:\utorrent2\Madness - Full House - The Very Best Of Madness (2017) [FLAC]\CD1\11 - Shut Up.wav
Pre-gap length 0:00:01.44
Peak level 91.1 % Extraction speed 3.2 X Track quality 100.0 % Test CRC 71E51186 Copy CRC 71E51186 Track not present in AccurateRip database Copy OK
Track 12
Filename C:\utorrent2\Madness - Full House - The Very Best Of Madness (2017) [FLAC]\CD1\12 - It Must Be Love.wav
Pre-gap length 0:00:01.22
Peak level 94.3 % Extraction speed 3.2 X Track quality 100.0 % Test CRC AE666514 Copy CRC AE666514 Track not present in AccurateRip database Copy OK
Track 13
Filename C:\utorrent2\Madness - Full House - The Very Best Of Madness (2017) [FLAC]\CD1\13 - Cardiac Arrest.wav
Pre-gap length 0:00:00.97
Peak level 87.0 % Extraction speed 3.2 X Track quality 100.0 % Test CRC D728C9FB Copy CRC D728C9FB Track not present in AccurateRip database Copy OK
Track 14
Filename C:\utorrent2\Madness - Full House - The Very Best Of Madness (2017) [FLAC]\CD1\14 - House Of Fun.wav
Pre-gap length 0:00:01.14
Peak level 94.3 % Extraction speed 3.3 X Track quality 100.0 % Test CRC 2DAA080D Copy CRC 2DAA080D Track not present in AccurateRip database Copy OK
Track 15
Filename C:\utorrent2\Madness - Full House - The Very Best Of Madness (2017) [FLAC]\CD1\15 - Driving In My Car.wav
Pre-gap length 0:00:01.40
Peak level 90.0 % Extraction speed 3.0 X Track quality 99.9 % Test CRC 7BDECA15 Copy CRC 7BDECA15 Track not present in AccurateRip database Copy OK
Track 16
Filename C:\utorrent2\Madness - Full House - The Very Best Of Madness (2017) [FLAC]\CD1\16 - Our House.wav
Pre-gap length 0:00:01.26
Peak level 94.3 % Extraction speed 3.1 X Track quality 99.9 % Test CRC FE37D9FE Copy CRC FE37D9FE Track not present in AccurateRip database Copy OK
Track 17
Filename C:\utorrent2\Madness - Full House - The Very Best Of Madness (2017) [FLAC]\CD1\17 - Tomorrow’s (Just Another Day).wav
Pre-gap length 0:00:01.18
Peak level 94.3 % Extraction speed 3.7 X Track quality 100.0 % Test CRC 53051E6C Copy CRC 53051E6C Track not present in AccurateRip database Copy OK
Track 18
Filename C:\utorrent2\Madness - Full House - The Very Best Of Madness (2017) [FLAC]\CD1\18 - Wings Of A Dove.wav
Pre-gap length 0:00:01.22
Peak level 87.0 % Extraction speed 3.7 X Track quality 100.0 % Test CRC 6DB82B4F Copy CRC 6DB82B4F Track not present in AccurateRip database Copy OK
Track 19
Filename C:\utorrent2\Madness - Full House - The Very Best Of Madness (2017) [FLAC]\CD1\19 - The Sun And The Rain.wav
Pre-gap length 0:00:01.16
Peak level 88.0 % Extraction speed 3.8 X Track quality 100.0 % Test CRC 44204D16 Copy CRC 44204D16 Track not present in AccurateRip database Copy OK
Track 20
Filename C:\utorrent2\Madness - Full House - The Very Best Of Madness (2017) [FLAC]\CD1\20 - Michael Caine.wav
Pre-gap length 0:00:01.24
Peak level 91.1 % Extraction speed 4.0 X Track quality 100.0 % Test CRC E8C33682 Copy CRC E8C33682 Track not present in AccurateRip database Copy OK
Track 21
Filename C:\utorrent2\Madness - Full House - The Very Best Of Madness (2017) [FLAC]\CD1\21 - One Better Day.wav
Pre-gap length 0:00:01.09
Peak level 91.1 % Extraction speed 3.6 X Track quality 99.9 % Test CRC 3CDF9005 Copy CRC 3CDF9005 Track not present in AccurateRip database Copy OK
None of the tracks are present in the AccurateRip database
No errors occurred
End of status report
---- CUETools DB Plugin V2.1.6
[CTDB TOCID: gRkIc98nMrskO0E2hpv0fmZhfdk-] foundSubmit result: gRkIc98nMrskO0E2hpv0fmZhfdk- has been confirmedTrack | CTDB Status 1 | (6/6) Accurately ripped 2 | (6/6) Accurately ripped 3 | (6/6) Accurately ripped 4 | (6/6) Accurately ripped 5 | (6/6) Accurately ripped 6 | (6/6) Accurately ripped 7 | (6/6) Accurately ripped 8 | (6/6) Accurately ripped 9 | (6/6) Accurately ripped 10 | (6/6) Accurately ripped 11 | (6/6) Accurately ripped 12 | (6/6) Accurately ripped 13 | (6/6) Accurately ripped 14 | (6/6) Accurately ripped 15 | (6/6) Accurately ripped 16 | (6/6) Accurately ripped 17 | (6/6) Accurately ripped 18 | (6/6) Accurately ripped 19 | (6/6) Accurately ripped 20 | (6/6) Accurately ripped 21 | (6/6) Accurately ripped
==== Log checksum 16F0DEA82A30FABCC098D19A8543B1F5C6BA6CFFF8CC160CEEBA7940193AE4CE ====

CD2

Exact Audio Copy V1.3 from 2. September 2016
EAC extraction logfile from 7. December 2017, 17:48
Madness / Full House - The Very Best Of Madness
Used drive : hp BDDVDRW CH28N Adapter: 1 ID: 0
Read mode : SecureUtilize accurate stream : YesDefeat audio cache : YesMake use of C2 pointers : No
Read offset correction : 667Overread into Lead-In and Lead-Out : NoFill up missing offset samples with silence : YesDelete leading and trailing silent blocks : NoNull samples used in CRC calculations : YesUsed interface : Native Win32 interface for Win NT & 2000Gap handling : Appended to previous track
Used output format : User Defined EncoderSelected bitrate : 1024 kBit/sQuality : HighAdd ID3 tag : NoCommand line compressor : C:\Program Files (x86)\Exact Audio Copy\Flac\flac.exeAdditional command line options : -8 -e -p -V -T "ARTIST=%artist%" -T "TITLE=%title%" -T "ALBUM=%albumtitle%" -T "DATE=%year%" -T "TRACKNUMBER=%tracknr%" -T "GENRE=%genre%" -T "PERFORMER=%albuminterpret%" -T "COMPOSER=%composer%" %haslyrics%--tag-from-file=LYRICS="%lyricsfile%"%haslyrics% -T "ALBUMARTIST=%albumartist%" -T "DISCNUMBER=%cdnumber%" -T "TOTALDISCS=%totalcds%" -T "TOTALTRACKS=%numtracks%" -T "COMMENT=%comment%" %source% -o %dest%
TOC of the extracted CD
Track | Start | Length | Start sector | End sector --------------------------------------------------------- 1 | 0:00.00 | 4:16.14 | 0 | 19213 2 | 4:16.14 | 4:37.42 | 19214 | 40030 3 | 8:53.56 | 3:44.46 | 40031 | 56876 4 | 12:38.27 | 3:45.45 | 56877 | 73796 5 | 16:23.72 | 3:51.40 | 73797 | 91161 6 | 20:15.37 | 3:22.12 | 91162 | 106323 7 | 23:37.49 | 4:30.59 | 106324 | 126632 8 | 28:08.33 | 4:01.05 | 126633 | 144712 9 | 32:09.38 | 3:07.13 | 144713 | 158750 10 | 35:16.51 | 4:13.43 | 158751 | 177768 11 | 39:30.19 | 3:19.64 | 177769 | 192757 12 | 42:50.08 | 4:35.64 | 192758 | 213446 13 | 47:25.72 | 2:52.01 | 213447 | 226347 14 | 50:17.73 | 2:50.71 | 226348 | 239168 15 | 53:08.69 | 3:27.02 | 239169 | 254695 16 | 56:35.71 | 3:19.15 | 254696 | 269635 17 | 59:55.11 | 3:17.07 | 269636 | 284417 18 | 63:12.18 | 3:37.39 | 284418 | 300731 19 | 66:49.57 | 3:40.53 | 300732 | 317284 20 | 70:30.35 | 4:12.73 | 317285 | 336257 21 | 74:43.33 | 2:39.47 | 336258 | 348229
Track 1
Filename C:\utorrent2\Madness - Full House - The Very Best Of Madness (2017) [FLAC]\CD2\01 - Uncle Sam.wav
Pre-gap length 0:00:02.00
Peak level 94.3 % Extraction speed 2.0 X Track quality 100.0 % Test CRC AFC5A7D8 Copy CRC AFC5A7D8 Track not present in AccurateRip database Copy OK
Track 2
Filename C:\utorrent2\Madness - Full House - The Very Best Of Madness (2017) [FLAC]\CD2\02 - Yesterday’s Men.wav
Pre-gap length 0:00:00.94
Peak level 94.3 % Extraction speed 2.0 X Track quality 99.9 % Test CRC BFA50CAB Copy CRC BFA50CAB Track not present in AccurateRip database Copy OK
Track 3
Filename C:\utorrent2\Madness - Full House - The Very Best Of Madness (2017) [FLAC]\CD2\03 - (Waiting For) The Ghost Train.wav
Pre-gap length 0:00:00.82
Peak level 94.3 % Extraction speed 2.3 X Track quality 100.0 % Test CRC 5B924D08 Copy CRC 5B924D08 Track not present in AccurateRip database Copy OK
Track 4
Filename C:\utorrent2\Madness - Full House - The Very Best Of Madness (2017) [FLAC]\CD2\04 - Sarah’s Song.wav
Pre-gap length 0:00:01.08
Peak level 94.3 % Extraction speed 2.5 X Track quality 100.0 % Test CRC B6452AFD Copy CRC B6452AFD Track not present in AccurateRip database Copy OK
Track 5
Filename C:\utorrent2\Madness - Full House - The Very Best Of Madness (2017) [FLAC]\CD2\05 - Lovestruck.wav
Pre-gap length 0:00:01.32
Peak level 94.3 % Extraction speed 2.6 X Track quality 100.0 % Test CRC CCE21124 Copy CRC CCE21124 Track not present in AccurateRip database Copy OK
Track 6
Filename C:\utorrent2\Madness - Full House - The Very Best Of Madness (2017) [FLAC]\CD2\06 - Johnny The Horse.wav
Pre-gap length 0:00:01.69
Peak level 94.3 % Extraction speed 2.3 X Track quality 99.9 % Test CRC 3EFDDC46 Copy CRC 3EFDDC46 Track not present in AccurateRip database Copy OK
Track 7
Filename C:\utorrent2\Madness - Full House - The Very Best Of Madness (2017) [FLAC]\CD2\07 - Drip Fed Fred.wav
Pre-gap length 0:00:01.86
Peak level 94.3 % Extraction speed 3.0 X Track quality 100.0 % Test CRC 30654538 Copy CRC 30654538 Track not present in AccurateRip database Copy OK
Track 8
Filename C:\utorrent2\Madness - Full House - The Very Best Of Madness (2017) [FLAC]\CD2\08 - Simple Equation.wav
Pre-gap length 0:00:01.17
Peak level 90.1 % Extraction speed 3.0 X Track quality 100.0 % Test CRC E1298A12 Copy CRC E1298A12 Track not present in AccurateRip database Copy OK
Track 9
Filename C:\utorrent2\Madness - Full House - The Very Best Of Madness (2017) [FLAC]\CD2\09 - Girl Why Don’t You.wav
Pre-gap length 0:00:01.18
Peak level 94.3 % Extraction speed 3.0 X Track quality 100.0 % Test CRC FAE47A2D Copy CRC FAE47A2D Track not present in AccurateRip database Copy OK
Track 10
Filename C:\utorrent2\Madness - Full House - The Very Best Of Madness (2017) [FLAC]\CD2\10 - NW5.wav
Pre-gap length 0:00:01.54
Peak level 90.1 % Extraction speed 3.3 X Track quality 100.0 % Test CRC 680BC8C5 Copy CRC 680BC8C5 Track not present in AccurateRip database Copy OK
Track 11
Filename C:\utorrent2\Madness - Full House - The Very Best Of Madness (2017) [FLAC]\CD2\11 - Dust Devil.wav
Pre-gap length 0:00:01.02
Peak level 94.3 % Extraction speed 2.8 X Track quality 99.9 % Test CRC 288E733C Copy CRC 288E733C Track not present in AccurateRip database Copy OK
Track 12
Filename C:\utorrent2\Madness - Full House - The Very Best Of Madness (2017) [FLAC]\CD2\12 - Forever Young.wav
Pre-gap length 0:00:01.16
Peak level 94.3 % Extraction speed 3.2 X Track quality 99.9 % Test CRC 88082373 Copy CRC 88082373 Track not present in AccurateRip database Copy OK
Track 13
Filename C:\utorrent2\Madness - Full House - The Very Best Of Madness (2017) [FLAC]\CD2\13 - Sugar And Spice.wav
Pre-gap length 0:00:01.36
Peak level 91.1 % Extraction speed 3.3 X Track quality 100.0 % Test CRC DA49CD74 Copy CRC DA49CD74 Track not present in AccurateRip database Copy OK
Track 14
Filename C:\utorrent2\Madness - Full House - The Very Best Of Madness (2017) [FLAC]\CD2\14 - My Girl 2.wav
Pre-gap length 0:00:01.32
Peak level 88.0 % Extraction speed 2.9 X Track quality 99.9 % Test CRC 9EDEE43A Copy CRC 9EDEE43A Track not present in AccurateRip database Copy OK
Track 15
Filename C:\utorrent2\Madness - Full House - The Very Best Of Madness (2017) [FLAC]\CD2\15 - Never Knew Your Name.wav
Pre-gap length 0:00:01.50
Peak level 90.1 % Extraction speed 3.6 X Track quality 100.0 % Test CRC 06C16026 Copy CRC 06C16026 Track not present in AccurateRip database Copy OK
Track 16
Filename C:\utorrent2\Madness - Full House - The Very Best Of Madness (2017) [FLAC]\CD2\16 - How Can I Tell You.wav
Pre-gap length 0:00:02.05
Peak level 82.2 % Extraction speed 3.2 X Track quality 99.9 % Test CRC 2FF26DEF Copy CRC 2FF26DEF Track not present in AccurateRip database Copy OK
Track 17
Filename C:\utorrent2\Madness - Full House - The Very Best Of Madness (2017) [FLAC]\CD2\17 - Misery.wav
Pre-gap length 0:00:01.36
Peak level 84.1 % Extraction speed 3.8 X Track quality 100.0 % Test CRC ED3877FB Copy CRC ED3877FB Track not present in AccurateRip database Copy OK
Track 18
Filename C:\utorrent2\Madness - Full House - The Very Best Of Madness (2017) [FLAC]\CD2\18 - La Luna.wav
Pre-gap length 0:00:01.26
Peak level 86.0 % Extraction speed 3.9 X Track quality 100.0 % Test CRC A25FE607 Copy CRC A25FE607 Track not present in AccurateRip database Copy OK
Track 19
Filename C:\utorrent2\Madness - Full House - The Very Best Of Madness (2017) [FLAC]\CD2\19 - Mr. Apples.wav
Pre-gap length 0:00:00.81
Peak level 80.3 % Extraction speed 4.0 X Track quality 100.0 % Test CRC ED62360A Copy CRC ED62360A Track not present in AccurateRip database Copy OK
Track 20
Filename C:\utorrent2\Madness - Full House - The Very Best Of Madness (2017) [FLAC]\CD2\20 - Can't Touch Us Now.wav
Pre-gap length 0:00:01.40
Peak level 100.0 % Extraction speed 3.7 X Track quality 99.9 % Test CRC F5363BAB Copy CRC F5363BAB Track not present in AccurateRip database Copy OK
Track 21
Filename C:\utorrent2\Madness - Full House - The Very Best Of Madness (2017) [FLAC]\CD2\21 - Another Version Of Me.wav
Pre-gap length 0:00:01.20
Peak level 91.1 % Extraction speed 3.9 X Track quality 100.0 % Test CRC C0811C8A Copy CRC C0811C8A Track not present in AccurateRip database Copy OK
None of the tracks are present in the AccurateRip database
No errors occurred
End of status report
---- CUETools DB Plugin V2.1.6
[CTDB TOCID: uiVm85CosCIejFZuxg1g0oX7VXs-] foundSubmit result: uiVm85CosCIejFZuxg1g0oX7VXs- has been confirmedTrack | CTDB Status 1 | (5/5) Accurately ripped 2 | (5/5) Accurately ripped 3 | (5/5) Accurately ripped 4 | (5/5) Accurately ripped 5 | (5/5) Accurately ripped 6 | (5/5) Accurately ripped 7 | (5/5) Accurately ripped 8 | (5/5) Accurately ripped 9 | (5/5) Accurately ripped 10 | (5/5) Accurately ripped 11 | (5/5) Accurately ripped 12 | (5/5) Accurately ripped 13 | (5/5) Accurately ripped 14 | (5/5) Accurately ripped 15 | (5/5) Accurately ripped 16 | (5/5) Accurately ripped 17 | (5/5) Accurately ripped 18 | (5/5) Accurately ripped 19 | (5/5) Accurately ripped 20 | (5/5) Accurately ripped 21 | (5/5) Accurately ripped
==== Log checksum 52F17584C155C4077F047CF57AB47B96C4679F07AE446B94261212E07744B828 ====

Содержание индексной карты (.CUE)CD1

REM GENRE SkaREM DATE 2017REM DISCID 210FAF15REM COMMENT "ExactAudioCopy v1.3"PERFORMER "Madness"TITLE "Full House - The Very Best of Madness"REM COMPOSER ""FILE "01 - The Prince.wav" WAVE TRACK 01 AUDIO TITLE "The Prince" PERFORMER "Madness" REM COMPOSER "" ISRC GBHVK0900426 FLAGS DCP INDEX 01 00:00:00 TRACK 02 AUDIO TITLE "One Step Beyond" PERFORMER "Madness" REM COMPOSER "" ISRC GBHVK0900421 FLAGS DCP INDEX 00 03:19:16FILE "02 - One Step Beyond.wav" WAVE INDEX 01 00:00:00 TRACK 03 AUDIO TITLE "My Girl" PERFORMER "Madness" REM COMPOSER "" ISRC GBHVK0900422 FLAGS DCP INDEX 00 02:17:66FILE "03 - My Girl.wav" WAVE INDEX 01 00:00:00 TRACK 04 AUDIO TITLE "Bed And Breakfast Man" PERFORMER "Madness" REM COMPOSER "" ISRC GBHVK0900429 FLAGS DCP INDEX 00 02:44:70FILE "04 - Bed And Breakfast Man.wav" WAVE INDEX 01 00:00:00 TRACK 05 AUDIO TITLE "Night Boat To Cairo" PERFORMER "Madness" REM COMPOSER "" ISRC GBHVK0900423 FLAGS DCP INDEX 00 02:31:62FILE "05 - Night Boat To Cairo.wav" WAVE INDEX 01 00:00:00 TRACK 06 AUDIO TITLE "Madness" PERFORMER "Madness" REM COMPOSER "" ISRC GBHVK0900434 FLAGS DCP INDEX 00 03:31:11FILE "06 - Madness.wav" WAVE INDEX 01 00:00:00 TRACK 07 AUDIO TITLE "Baggy Trousers" PERFORMER "Madness" REM COMPOSER "" ISRC GB7GZ0900026 FLAGS DCP INDEX 00 02:36:70FILE "07 - Baggy Trousers.wav" WAVE INDEX 01 00:00:00 TRACK 08 AUDIO TITLE "Embarrassment" PERFORMER "Madness" REM COMPOSER "" ISRC GB7GZ0900027 FLAGS DCP INDEX 00 02:45:67FILE "08 - Embarrassment.wav" WAVE INDEX 01 00:00:00 TRACK 09 AUDIO TITLE "The Return Of The Los Palmas 7" PERFORMER "Madness" REM COMPOSER "" ISRC GB7GZ0900039 FLAGS DCP INDEX 00 03:11:37FILE "09 - The Return Of The Los Palmas 7.wav" WAVE INDEX 01 00:00:00 TRACK 10 AUDIO TITLE "Grey Day" PERFORMER "Madness" REM COMPOSER "" ISRC GB7GZ0900007 FLAGS DCP INDEX 00 02:31:34FILE "10 - Grey Day.wav" WAVE INDEX 01 00:00:00 TRACK 11 AUDIO TITLE "Shut Up" PERFORMER "Madness" REM COMPOSER "" ISRC GB7GZ0900002 FLAGS DCP INDEX 00 03:39:16FILE "11 - Shut Up.wav" WAVE INDEX 01 00:00:00 TRACK 12 AUDIO TITLE "It Must Be Love" PERFORMER "Madness" REM COMPOSER "" ISRC GBHVK0900449 FLAGS DCP INDEX 00 04:06:14FILE "12 - It Must Be Love.wav" WAVE INDEX 01 00:00:00 TRACK 13 AUDIO TITLE "Cardiac Arrest" PERFORMER "Madness" REM COMPOSER "" ISRC GBHVK0900455 FLAGS DCP INDEX 00 03:20:45FILE "13 - Cardiac Arrest.wav" WAVE INDEX 01 00:00:00 TRACK 14 AUDIO TITLE "House Of Fun" PERFORMER "Madness" REM COMPOSER "" ISRC GBHVK0900447 FLAGS DCP INDEX 00 02:52:54FILE "14 - House Of Fun.wav" WAVE INDEX 01 00:00:00 TRACK 15 AUDIO TITLE "Driving In My Car" PERFORMER "Madness" REM COMPOSER "" ISRC GBHVK0900448 FLAGS DCP INDEX 00 02:57:25FILE "15 - Driving In My Car.wav" WAVE INDEX 01 00:00:00 TRACK 16 AUDIO TITLE "Our House" PERFORMER "Madness" REM COMPOSER "" ISRC GB7GZ1000033 FLAGS DCP INDEX 00 03:16:70FILE "16 - Our House.wav" WAVE INDEX 01 00:00:00 TRACK 17 AUDIO TITLE "Tomorrow’s (Just Another Day)" PERFORMER "Madness" REM COMPOSER "" ISRC GB7GZ1000028 FLAGS DCP INDEX 00 03:23:00FILE "17 - Tomorrow’s (Just Another Day).wav" WAVE INDEX 01 00:00:00 TRACK 18 AUDIO TITLE "Wings Of A Dove" PERFORMER "Madness" REM COMPOSER "" ISRC GB7GZ1000013 FLAGS DCP INDEX 00 03:11:12FILE "18 - Wings Of A Dove.wav" WAVE INDEX 01 00:00:00 TRACK 19 AUDIO TITLE "The Sun And The Rain" PERFORMER "Madness" REM COMPOSER "" ISRC GB7GZ1000017 FLAGS DCP INDEX 00 02:58:13FILE "19 - The Sun And The Rain.wav" WAVE INDEX 01 00:00:00 TRACK 20 AUDIO TITLE "Michael Caine" PERFORMER "Madness" REM COMPOSER "" ISRC GB7GZ1000002 FLAGS DCP INDEX 00 03:27:09FILE "20 - Michael Caine.wav" WAVE INDEX 01 00:00:00 TRACK 21 AUDIO TITLE "One Better Day" PERFORMER "Madness" REM COMPOSER "" ISRC GB7GZ1000004 FLAGS DCP INDEX 00 03:39:64FILE "21 - One Better Day.wav" WAVE INDEX 01 00:00:00

CD2

REM GENRE SkaREM DATE 2017REM DISCID 3E122315REM COMMENT "ExactAudioCopy v1.3"PERFORMER "Madness"TITLE "Full House - The Very Best Of Madness"REM COMPOSER ""FILE "01 - Uncle Sam.wav" WAVE TRACK 01 AUDIO TITLE "Uncle Sam" PERFORMER "Madness" REM COMPOSER "" ISRC GBAAA9900610 FLAGS DCP INDEX 01 00:00:00 TRACK 02 AUDIO TITLE "Yesterday’s Men" PERFORMER "Madness" REM COMPOSER "" ISRC GBAAA9900609 FLAGS DCP INDEX 00 04:15:18FILE "02 - Yesterday’s Men.wav" WAVE INDEX 01 00:00:00 TRACK 03 AUDIO TITLE "(Waiting For) The Ghost Train" PERFORMER "Madness" REM COMPOSER "" ISRC GBAAA1000233 FLAGS DCP INDEX 00 04:36:55FILE "03 - (Waiting For) The Ghost Train.wav" WAVE INDEX 01 00:00:00 TRACK 04 AUDIO TITLE "Sarah’s Song" PERFORMER "Madness" REM COMPOSER "" ISRC GB7GZ1000150 FLAGS DCP INDEX 00 03:43:40FILE "04 - Sarah’s Song.wav" WAVE INDEX 01 00:00:00 TRACK 05 AUDIO TITLE "Lovestruck" PERFORMER "Madness" REM COMPOSER "" ISRC GBHVK0900458 FLAGS DCP INDEX 00 03:44:21FILE "05 - Lovestruck.wav" WAVE INDEX 01 00:00:00 TRACK 06 AUDIO TITLE "Johnny The Horse" PERFORMER "Madness" REM COMPOSER "" ISRC GB7GZ1000129 FLAGS DCP INDEX 00 03:49:63FILE "06 - Johnny The Horse.wav" WAVE INDEX 01 00:00:00 TRACK 07 AUDIO TITLE "Drip Fed Fred" PERFORMER "Madness" REM COMPOSER "" ISRC GBHVK0900508 FLAGS DCP INDEX 00 03:20:22FILE "07 - Drip Fed Fred.wav" WAVE INDEX 01 00:00:00 TRACK 08 AUDIO TITLE "Simple Equation" PERFORMER "Madness" REM COMPOSER "" ISRC GB7GZ1000149 FLAGS DCP INDEX 00 04:29:46FILE "08 - Simple Equation.wav" WAVE INDEX 01 00:00:00 TRACK 09 AUDIO TITLE "Girl Why Don’t You" PERFORMER "Madness" REM COMPOSER "" ISRC GBBLK0500128 FLAGS DCP INDEX 00 03:59:66FILE "09 - Girl Why Don’t You.wav" WAVE INDEX 01 00:00:00 TRACK 10 AUDIO TITLE "NW5" PERFORMER "Madness" REM COMPOSER "" ISRC GBZKS0900019 FLAGS DCP INDEX 00 03:05:47FILE "10 - NW5.wav" WAVE INDEX 01 00:00:00 TRACK 11 AUDIO TITLE "Dust Devil" PERFORMER "Madness" REM COMPOSER "" ISRC GBZKS0900005 FLAGS DCP INDEX 00 04:12:41FILE "11 - Dust Devil.wav" WAVE INDEX 01 00:00:00 TRACK 12 AUDIO TITLE "Forever Young" PERFORMER "Madness" REM COMPOSER "" ISRC GBZKS0900004 FLAGS DCP INDEX 00 03:18:52FILE "12 - Forever Young.wav" WAVE INDEX 01 00:00:00 TRACK 13 AUDIO TITLE "Sugar And Spice" PERFORMER "Madness" REM COMPOSER "" ISRC GBZKS0900003 FLAGS DCP INDEX 00 04:34:37FILE "13 - Sugar And Spice.wav" WAVE INDEX 01 00:00:00 TRACK 14 AUDIO TITLE "My Girl 2" PERFORMER "Madness" REM COMPOSER "" ISRC GBCEJ1200404 FLAGS DCP INDEX 00 02:50:52FILE "14 - My Girl 2.wav" WAVE INDEX 01 00:00:00 TRACK 15 AUDIO TITLE "Never Knew Your Name" PERFORMER "Madness" REM COMPOSER "" ISRC GBCEJ1200403 FLAGS DCP INDEX 00 02:49:33FILE "15 - Never Knew Your Name.wav" WAVE INDEX 01 00:00:00 TRACK 16 AUDIO TITLE "How Can I Tell You?" PERFORMER "Madness" REM COMPOSER "" ISRC GBCEJ1200406 FLAGS DCP INDEX 00 03:24:73FILE "16 - How Can I Tell You.wav" WAVE INDEX 01 00:00:00 TRACK 17 AUDIO TITLE "Misery" PERFORMER "Madness" REM COMPOSER "" ISRC GBCEJ1200425 FLAGS DCP INDEX 00 03:17:63FILE "17 - Misery.wav" WAVE INDEX 01 00:00:00 TRACK 18 AUDIO TITLE "La Luna" PERFORMER "Madness" REM COMPOSER "" ISRC GBCEJ1200405 FLAGS DCP INDEX 00 03:15:62FILE "18 - La Luna.wav" WAVE INDEX 01 00:00:00 TRACK 19 AUDIO TITLE "Mr. Apples" PERFORMER "Madness" REM COMPOSER "" ISRC GB2DY1600232 FLAGS DCP INDEX 00 03:36:53FILE "19 - Mr. Apples.wav" WAVE INDEX 01 00:00:00 TRACK 20 AUDIO TITLE "Can't Touch Us Now" PERFORMER "Madness" REM COMPOSER "" ISRC GB2DY1600225 FLAGS DCP INDEX 00 03:39:23FILE "20 - Can't Touch Us Now.wav" WAVE INDEX 01 00:00:00 TRACK 21 AUDIO TITLE "Another Version Of Me" PERFORMER "Madness" REM COMPOSER "" ISRC GB2DY1600223 FLAGS DCP INDEX 00 04:11:58FILE "21 - Another Version Of Me.wav" WAVE INDEX 01 00:00:00


[islamvillage.com]_t_5490530.torrent
Торрент: Зарегистрирован ·  [ 2017-12-12 20:24 ] ·  1e5fc3379cc4a3d9dc75a308a204637c97034743

14 KB

Статус: проверено
Скачан: 0 раз
Размер: 1 GB
Оценка: 
(Голосов: 0)
Сказали спасибо: 0  Спасибо
Похожие темы
[Профиль]    [ЛС]
Показать сообщения:    
Ответить на тему

Текущее время: Сегодня 05:50

Часовой пояс: GMT + 7



Вы не можете начинать темы
Вы не можете отвечать на сообщения
Вы не можете редактировать свои сообщения
Вы не можете удалять свои сообщения
Вы не можете голосовать в опросах
Вы не можете прикреплять файлы к сообщениям
Вы можете скачивать файлы


Dragon Ball – Bảy Viên Ngọc Rồng chap 268 | 4 years ago Thick Latina Tries Anal with A Big Black Dick | Zombieland Saga (dub)