(UK Hardcore) [CD] VA - Bringing The Justice Vol.2 - 2017, FLAC (tracks+.cue), lossless

Ответить на тему
Статистика раздачи [Обновить пиров]
Размер:  414 MB   |    Зарегистрирован:  1 год   |    Скачан:  0 раз

Полного источника не было: Никогда

 
   
 
 
 
Автор Сообщение

islamvillage.com

Создавать темы 21-Дек-2017 23:57

[Цитировать]

VA - Bringing The Justice Vol.2
Жанр: UK Hardcore
Носитель: CD
Страна-производитель диска (релиза): US
Год издания: 2017
Издатель (лейбл): Justice Hardcore
Аудиокодек: FLAC (*.flac)
Тип рипа: tracks+.cue
Битрейт аудио: lossless
Продолжительность: 51:58.573
Источник (релизер): http://justicehardcore.com/shop/btj2/
Наличие сканов в содержимом раздачи: нет
Треклист:
01. Rob IYF & Nobody - Bad Boys
02. Klubfiller, Nobody & Ciccone - Outta My Mind (Nobody 2017 Mix)
03. Rob IYF & Nobody - Hero
04. D-Code - Like I Feel (Rob IYF Remix)
05. Cosmic Gate - Exploration Of Space (Rob IYF & Nobody Remix)
06. Inspiration, Deverstate & MOB - Survive (Rob IYF & Nobody Remix)
07. RedMoon & Meron Ryan - Never Let Go (Nobody Remix)
08. Rob IYF & Nobody Ft. Harri Rush - Like A Rainbow
09. Refix & Rob IYF - Find You
10. Rob IYF & Nobody - Nangs

Лог создания рипа

Exact Audio Copy V1.0 beta 3 from 29. August 2011
EAC extraction logfile from 15. December 2017, 23:22
Various Artists / Bringing The Justice Vol.2
Used drive : MATSHITABD-MLT UJ260AF Adapter: 0 ID: 0
Read mode : SecureUtilize accurate stream : YesDefeat audio cache : YesMake use of C2 pointers : No
Read offset correction : 103Overread into Lead-In and Lead-Out : NoFill up missing offset samples with silence : YesDelete leading and trailing silent blocks : NoNull samples used in CRC calculations : YesUsed interface : Native Win32 interface for Win NT & 2000Gap handling : Appended to previous track
Used output format : User Defined EncoderSelected bitrate : 1024 kBit/sQuality : HighAdd ID3 tag : NoCommand line compressor : C:\Program Files (x86)\FLAC\flac.exeAdditional command line options : -V -8 -T "Date=%year%" -T "Genre=%genre%" %source%
TOC of the extracted CD
Track | Start | Length | Start sector | End sector --------------------------------------------------------- 1 | 0:00.00 | 4:14.37 | 0 | 19086 2 | 4:14.37 | 4:10.46 | 19087 | 37882 3 | 8:25.08 | 5:48.00 | 37883 | 63982 4 | 14:13.08 | 5:35.24 | 63983 | 89131 5 | 19:48.32 | 5:01.33 | 89132 | 111739 6 | 24:49.65 | 5:25.06 | 111740 | 136120 7 | 30:14.71 | 5:40.72 | 136121 | 161692 8 | 35:55.68 | 5:36.28 | 161693 | 186920 9 | 41:32.21 | 6:26.11 | 186921 | 215881 10 | 47:58.32 | 4:00.11 | 215882 | 233892
Track 1
Filename F:\Music\[Lossless]\VA - Bringing The Justice Vol.2 [none] (2017)\01. Rob IYF & Nobody - Bad Boys.wav
Pre-gap length 0:00:02.00
Peak level 99.9 % Extraction speed 2.6 X Track quality 100.0 % Test CRC 07C74311 Copy CRC 07C74311 Track not present in AccurateRip database Copy OK
Track 2
Filename F:\Music\[Lossless]\VA - Bringing The Justice Vol.2 [none] (2017)\02. Klubfiller, Nobody & Ciccone - Outta My Mind (Nobody 2017 Remix).wav
Peak level 99.9 % Extraction speed 2.8 X Track quality 100.0 % Test CRC 9103E083 Copy CRC 9103E083 Track not present in AccurateRip database Copy OK
Track 3
Filename F:\Music\[Lossless]\VA - Bringing The Justice Vol.2 [none] (2017)\03. Rob IYF & Nobody - Hero.wav
Peak level 99.9 % Extraction speed 3.2 X Track quality 100.0 % Test CRC 7DBBF46D Copy CRC 7DBBF46D Track not present in AccurateRip database Copy OK
Track 4
Filename F:\Music\[Lossless]\VA - Bringing The Justice Vol.2 [none] (2017)\04. D-Code - Like I Feel (Rob IYF Remix).wav
Peak level 100.0 % Extraction speed 3.1 X Track quality 99.9 % Test CRC 71559FC3 Copy CRC 71559FC3 Track not present in AccurateRip database Copy OK
Track 5
Filename F:\Music\[Lossless]\VA - Bringing The Justice Vol.2 [none] (2017)\05. Cosmic Gate - Exploration Of Space (Rob IYF & Nobody Remix).wav
Peak level 100.0 % Extraction speed 3.3 X Track quality 99.9 % Test CRC 065C2984 Copy CRC 065C2984 Track not present in AccurateRip database Copy OK
Track 6
Filename F:\Music\[Lossless]\VA - Bringing The Justice Vol.2 [none] (2017)\06. Inspiration, Deverstate & MOB - Survive (Rob IYF & Nobody Remix).wav
Peak level 99.9 % Extraction speed 3.9 X Track quality 100.0 % Test CRC B3A16BA6 Copy CRC B3A16BA6 Track not present in AccurateRip database Copy OK
Track 7
Filename F:\Music\[Lossless]\VA - Bringing The Justice Vol.2 [none] (2017)\07. RedMoon & Meron Ryan - Never Let Go (Nobody Remix).wav
Peak level 100.0 % Extraction speed 3.8 X Track quality 99.9 % Test CRC 7265A082 Copy CRC 7265A082 Track not present in AccurateRip database Copy OK
Track 8
Filename F:\Music\[Lossless]\VA - Bringing The Justice Vol.2 [none] (2017)\08. Rob IYF & Nobody Ft. Harri Rush - Like A Rainbow.wav
Peak level 100.0 % Extraction speed 4.3 X Track quality 100.0 % Test CRC 94BC4B44 Copy CRC 94BC4B44 Track not present in AccurateRip database Copy OK
Track 9
Filename F:\Music\[Lossless]\VA - Bringing The Justice Vol.2 [none] (2017)\09. Refix & Rob IYF - Find You.wav
Peak level 100.0 % Extraction speed 4.6 X Track quality 100.0 % Test CRC E6A36271 Copy CRC E6A36271 Track not present in AccurateRip database Copy OK
Track 10
Filename F:\Music\[Lossless]\VA - Bringing The Justice Vol.2 [none] (2017)\10. Rob IYF & Nobody - Nangs.wav
Peak level 99.9 % Extraction speed 4.5 X Track quality 100.0 % Test CRC 5E57B4A9 Copy CRC 5E57B4A9 Track not present in AccurateRip database Copy OK
None of the tracks are present in the AccurateRip database
No errors occurred
End of status report
---- CUETools DB Plugin V2.1.3
[CTDB TOCID: bA_OEmW2v5qbCYnJq7sLod77odQ-] found, Submit result: bA_OEmW2v5qbCYnJq7sLod77odQ- has been confirmed[4ffe2b54] (1/1) Accurately ripped
==== Log checksum 06455B5835A8B98D35E269CC543BFCDFF4C663E2ED5C281316D994F6834214ED ====

Содержание индексной карты (.CUE)

REM GENRE HardcoreREM DATE 2017REM DISCID 8B0C2E0AREM COMMENT "ExactAudioCopy v1.0b3"PERFORMER "Various Artists"TITLE "Bringing The Justice Vol.2"FILE "01. Rob IYF & Nobody - Bad Boys.wav" WAVE TRACK 01 AUDIO TITLE "Bad Boys" PERFORMER "Rob IYF & Nobody" ISRC 000000000000 INDEX 01 00:00:00FILE "02. Klubfiller, Nobody & Ciccone - Outta My Mind (Nobody 2017 Remix).wav" WAVE TRACK 02 AUDIO TITLE "Outta My Mind (Nobody 2017 Remix)" PERFORMER "Klubfiller, Nobody & Ciccone" ISRC 000000000000 INDEX 01 00:00:00FILE "03. Rob IYF & Nobody - Hero.wav" WAVE TRACK 03 AUDIO TITLE "Hero" PERFORMER "Rob IYF & Nobody" ISRC 000000000000 INDEX 01 00:00:00FILE "04. D-Code - Like I Feel (Rob IYF Remix).wav" WAVE TRACK 04 AUDIO TITLE "Like I Feel (Rob IYF Remix)" PERFORMER "D-Code" ISRC 000000000000 INDEX 01 00:00:00FILE "05. Cosmic Gate - Exploration Of Space (Rob IYF & Nobody Remix).wav" WAVE TRACK 05 AUDIO TITLE "Exploration Of Space (Rob IYF & Nobody Remix)" PERFORMER "Cosmic Gate" ISRC 000000000000 INDEX 01 00:00:00FILE "06. Inspiration, Deverstate & MOB - Survive (Rob IYF & Nobody Remix).wav" WAVE TRACK 06 AUDIO TITLE "Survive (Rob IYF & Nobody Remix)" PERFORMER "Inspiration, Deverstate & MOB" ISRC 000000000000 INDEX 01 00:00:00FILE "07. RedMoon & Meron Ryan - Never Let Go (Nobody Remix).wav" WAVE TRACK 07 AUDIO TITLE "Never Let Go (Nobody Remix)" PERFORMER "RedMoon & Meron Ryan" ISRC 000000000000 INDEX 01 00:00:00FILE "08. Rob IYF & Nobody Ft. Harri Rush - Like A Rainbow.wav" WAVE TRACK 08 AUDIO TITLE "Like A Rainbow" PERFORMER "Rob IYF & Nobody Ft. Harri Rush" ISRC 000000000000 INDEX 01 00:00:00FILE "09. Refix & Rob IYF - Find You.wav" WAVE TRACK 09 AUDIO TITLE "Find You" PERFORMER "Refix & Rob IYF" ISRC 000000000000 INDEX 01 00:00:00FILE "10. Rob IYF & Nobody - Nangs.wav" WAVE TRACK 10 AUDIO TITLE "Nangs" PERFORMER "Rob IYF & Nobody" ISRC 000000000000 INDEX 01 00:00:00

Лог проверки качества

AUDIOCHECKER v2.0 beta (build 457) - by Dester - opdester@freemail.hu~~~~~~~~~~~~~~~~~~~~~~~~~~~~~~~~~~-=== DO NOT EDIT THIS FILE! ===-
Path: ...\VA - Bringing The Justice Vol.2 [none] (2017)
01 -=- 01. Rob IYF & Nobody - Bad Boys.flac -=- CDDA (99%)02 -=- 02. Klubfiller, Nobody & Ciccone - Outta My Mind (Nobody 2017 Remix).flac -=- CDDA (99%)03 -=- 03. Rob IYF & Nobody - Hero.flac -=- CDDA (100%)04 -=- 04. D-Code - Like I Feel (Rob IYF Remix).flac -=- CDDA (100%)05 -=- 05. Cosmic Gate - Exploration Of Space (Rob IYF & Nobody Remix).flac -=- CDDA (99%)06 -=- 06. Inspiration, Deverstate & MOB - Survive (Rob IYF & Nobody Remix).flac -=- CDDA (100%)07 -=- 07. RedMoon & Meron Ryan - Never Let Go (Nobody Remix).flac -=- CDDA (100%)08 -=- 08. Rob IYF & Nobody Ft. Harri Rush - Like A Rainbow.flac -=- CDDA (100%)09 -=- 09. Refix & Rob IYF - Find You.flac -=- CDDA (99%)10 -=- 10. Rob IYF & Nobody - Nangs.flac -=- CDDA (100%)
Summary 99,60% CDDA
49466884


[islamvillage.com]_t_5494083.torrent
Торрент: Зарегистрирован ·  [ 2017-12-21 23:54 ] ·  6af3bcfbd0b7cbc275f2608ee6f1e1ea91c92eab

18 KB

Статус: проверено
Скачан: 0 раз
Размер: 414 MB
Оценка: 
(Голосов: 0)
Сказали спасибо: 0  Спасибо
Похожие темы
[Профиль]    [ЛС]
Показать сообщения:    
Ответить на тему

Текущее время: Сегодня 02:00

Часовой пояс: GMT + 7



Вы не можете начинать темы
Вы не можете отвечать на сообщения
Вы не можете редактировать свои сообщения
Вы не можете удалять свои сообщения
Вы не можете голосовать в опросах
Вы не можете прикреплять файлы к сообщениям
Вы можете скачивать файлы


M3 Black 12.9 Grade Alloy Steel Allen Hex Socket Cap Head Screw Bolt DIN912 | Domestic na Kanojo chap 6 | Devil’s Knot