(Avant-Garde Metal / Jazz Metal) [CD] Diablo Swing Orchestra - Pacifisticuffs - 2017, FLAC (image+.cue), lossless

Ответить на тему
Статистика раздачи [Обновить пиров]
Размер:  310 MB   |    Зарегистрирован:  1 год   |    Скачан:  0 раз

Полного источника не было: Никогда

 
   
 
 
 
Автор Сообщение

islamvillage.com

Создавать темы 04-Янв-2018 22:59

[Цитировать]

Diablo Swing Orchestra / Pacifisticuffs
Жанр: Avant-Garde Metal / Jazz Metal
Носитель: CD
Страна-производитель диска (релиза): Russia
Год издания: 2017
Издатель (лейбл): Candlelight Records
Номер по каталогу: CANDLE792402
Страна исполнителя (группы): Sweden
Аудиокодек: FLAC (*.flac)
Тип рипа: image+.cue
Битрейт аудио: lossless
Продолжительность: 44:27
Источник (релизер): rd
Наличие сканов в содержимом раздачи: да
Треклист:
01. Knucklehugs (Arm Yourself With Love) (02:26)
02. The Age Of Vulture Culture (05:00)
03. Superhero Jagganath (05:41)
04. Vision Of The Purblind (01:00)
05. Lady Clandestine Chainbreaker (04:50)
06. Jigsaw Hustle (04:52)
07. Pulse Of The Incipient (00:34)
08. Ode To The Innocent (03:49)
09. Interruption (05:21)
10. Cul-De-Sac Semantics (01:09)
11. Karma Bonfire (04:14)
12. Climbing The Eyewall (04:40)
13. Porch Of Perception (00:43)
http://www.diabloswing.com/
http://en.wikipedia.org/wiki/Diablo_Swing_Orchestra#Discography
http://www.metal-archives.com/bands/Diablo_Swing_Orchestra/38762

Лог создания рипа

Exact Audio Copy V1.1 from 23. June 2015
EAC extraction logfile from 23. December 2017, 11:36
Diablo Swing Orchestra / Pacifisticuffs
Used drive : TSSTcorpDVDWBD SH-B123L Adapter: 0 ID: 4
Read mode : SecureUtilize accurate stream : YesDefeat audio cache : YesMake use of C2 pointers : No
Read offset correction : 6Overread into Lead-In and Lead-Out : NoFill up missing offset samples with silence : YesDelete leading and trailing silent blocks : NoNull samples used in CRC calculations : YesUsed interface : Installed external ASPI interface
Used output format : User Defined EncoderSelected bitrate : 768 kBit/sQuality : HighAdd ID3 tag : NoCommand line compressor : C:\Program Files (x86)\Exact Audio Copy\FLAC\FLAC.EXEAdditional command line options : -6 -V -T "ARTIST=%artist%" -T "TITLE=%title%" -T "ALBUM=%albumtitle%" -T "DATE=%year%" -T "TRACKNUMBER=%tracknr%" -T "GENRE=%genre%" -T "COMMENT=%comment%" -T "BAND=%albuminterpret%" -T "ALBUMARTIST=%albuminterpret%" -T "COMPOSER=%composer%" %haslyrics%--tag-from-file=LYRICS="%lyricsfile%"%haslyrics% -T "DISCNUMBER=%cdnumber%" -T "TOTALDISCS=%totalcds%" -T "TOTALTRACKS=%numtracks%" %hascover%--picture="%coverfile%"%hascover% %source% -o %dest%
TOC of the extracted CD
Track | Start | Length | Start sector | End sector --------------------------------------------------------- 1 | 0:00.00 | 2:26.65 | 0 | 11014 2 | 2:26.65 | 5:00.06 | 11015 | 33520 3 | 7:26.71 | 5:41.28 | 33521 | 59123 4 | 13:08.24 | 1:01.01 | 59124 | 63699 5 | 14:09.25 | 4:50.01 | 63700 | 85450 6 | 18:59.26 | 4:52.45 | 85451 | 107395 7 | 23:51.71 | 0:34.33 | 107396 | 109978 8 | 24:26.29 | 3:49.29 | 109979 | 127182 9 | 28:15.58 | 5:21.26 | 127183 | 151283 10 | 33:37.09 | 1:09.12 | 151284 | 156470 11 | 34:46.21 | 4:14.62 | 156471 | 175582 12 | 39:01.08 | 4:40.43 | 175583 | 196625 13 | 43:41.51 | 0:43.73 | 196626 | 199923
Range status and errors
Selected range
Filename E:\MUSIC\Diablo Swing Orchestra - Pacifisticuffs.wav
Peak level 100.0 % Extraction speed 3.3 X Range quality 99.9 % Test CRC 0434E843 Copy CRC 0434E843 Copy OK
No errors occurred
AccurateRip summary
Track 1 not present in databaseTrack 2 not present in databaseTrack 3 not present in databaseTrack 4 not present in databaseTrack 5 not present in databaseTrack 6 not present in databaseTrack 7 not present in databaseTrack 8 not present in databaseTrack 9 not present in databaseTrack 10 not present in databaseTrack 11 not present in databaseTrack 12 not present in databaseTrack 13 not present in database
None of the tracks are present in the AccurateRip database
End of status report
==== Log checksum F9699DB03C182266B8FA660708C88CA59FA8A1D44976EFDCDC90A693537E3FCF ====

Об альбоме (сборнике)

Четвёртый студийный альбом шведской авангард-метал-группы Diablo Swing Orchestra. Вышел 8 декабря 2017 года на лейблах Candlelight Records и Spinefarm Records. Для группы Pacifisticuffs стал первым альбомом, записанным с вокалисткой Кристин Эвегорд, которая в 2014 году сменила Аннлуисе Лёгдлунд.

Состав

Kristin Evegård - lead vocals, piano
Daniel Håkansson - lead vocals, guitar
Pontus Mantefors - guitar, synthesizer, FX, vocals
Johannes Bergion - cello, backing vocals
Martin Isaksson - trumpet, backing vocals
Daniel Hedin - trombone, backing vocals
Anders "Andy" Johansson - bass
Johan Norbäck - drums


[islamvillage.com]_t_5501503.torrent
Торрент: Зарегистрирован ·  [ 2018-01-04 22:54 ] ·  cb3c63537709ab427720562fe23214ebe22229dd

13 KB

Статус: проверено
Скачан: 0 раз
Размер: 310 MB
Оценка: 
(Голосов: 0)
Сказали спасибо: 0  Спасибо
Похожие темы
[Профиль]    [ЛС]
Показать сообщения:    
Ответить на тему

Текущее время: Сегодня 03:50

Часовой пояс: GMT + 7



Вы не можете начинать темы
Вы не можете отвечать на сообщения
Вы не можете редактировать свои сообщения
Вы не можете удалять свои сообщения
Вы не можете голосовать в опросах
Вы не можете прикреплять файлы к сообщениям
Вы можете скачивать файлы


Oakwood [L] [PLAZA] (2018) PC | Bleach Live Action Subtitle Indonesia | Señora acero Tempora