(Hardcore, Gabber) VA - Hardcore Slam vol.1 [2CD] - 1996, FLAC (tracks+.cue) lossless

Ответить на тему
Статистика раздачи [Обновить пиров]
Размер:  1.06 GB   |    Зарегистрирован:  1 год   |    Скачан:  0 раз

Полного источника не было: Никогда

 
   
 
 
 
Автор Сообщение

islamvillage.com

Создавать темы 06-Янв-2018 23:00

[Цитировать]

Hardcore Slam vol.1 [2CD]
Hardcore Slam vol.2 находится тут: http://Torrentc/forum/viewtopic.php?t=3317603
Жанр: Hardcore, Gabber
Страна-производитель диска: Germany
Год издания диска: Oct 1996
Издатель (лейбл): Legoan
Номер по каталогу: DA 56003-2, D-04
Аудио кодек: FLAC (*.flac)
Тип рипа: tracks+.cue (non-compliant)
Битрейт аудио: lossless
Продолжительность: 75:16 \ 78:42
Источник (релизер): Собственный рип
Наличие сканов в содержимом раздачи: нет
Треклист:
CD1:
01. Rotterdam Terror Corps - Hardcore Slam
02. Brothers In Crime - Forever (Club Mix)
03. Highlander - Hold Me Now (I'm Sorry)
04. Paul Elstak - Dont Leave Me Alone (Hardcore Version)
05. DJ Isaac - Bad Dreams (Remix)
06. Waxweazle vs Guitar Rob - Spread Your Wings
07. Profound - Let Da Music Play
08. DJ Isaac - We Like Marihuana (Extended Hardcore Version)
09. Profound - You Got It
10. Highlander - Everytime (Hardcore Mix)
11. Damage Inc. - Turn Around (Live Version)
12. Infernus - I Want Your Love
13. Stingray & Sonicdriver - As Cold As Ice (Original Remastered)
14. The Party Gangsta - Gangsta Megamix
15. DJ Gizmo & Dark Raver - We Got The Juice (The Giz & Darkie's Original Mix)
16. Infernus - Runaway
CD2:
01. Rob Gee - Ecstasy, You Got What I Need
02. The Bazeman - Bazeman
03. Rollersquad - Seriously
04. Sigma 909 - Out Of Sight
05. Revolution Team - Fuck The Bitch
06. Waxweazle meets DJ Delirium - Inside Da Rhythm
07. DJ Ruffneck & DJ Mickey - Doodlesex
08. Myrmidon - No Choice
09. Sho Nuff - Time Is Eternal
10. Rollersquad - Rollin'
11. DJ Pagan - Get Down Easy
12. Roger - Energy
13. Neophyte - Technoblast
14. DJ Pagan - We Do It
15. Sigma 909 - Hardcore Slam
16. Razor - A Day In Paradise
Доп. информация:
Compiled By - Sven Kunkel
О неточном треклисте на обложке диска:
Track 1-05/1-08/1-13 miss remix addition.
Track 1-06 misses extra artist.
Track 1-13 is listed incorrect as "As Cold As Ice"
Track 1-15 is listed incorrect as "We Got The Juice"
Track 2-01 is listed incorrect as "Ecstasy You Got What I Want"
Track 2-02 is listed as "Bazman"
Track 2-05 is listed incorrect as "F#ck The Bitch"
Track 2-06 misses extra artist.
Track 2-13 is listed incorrect as "Technoblaster"

Лог создания рипа (CD1):

Exact Audio Copy V0.99 prebeta 5 from 4. May 2009
EAC extraction logfile from 2. December 2010, 17:44
VA / Hardcore Slam
Used drive : PIONEER DVD-RW DVR-215L Adapter: 2 ID: 5
Read mode : SecureUtilize accurate stream : YesDefeat audio cache : YesMake use of C2 pointers : No
Read offset correction : 48Overread into Lead-In and Lead-Out : NoFill up missing offset samples with silence : YesDelete leading and trailing silent blocks : NoNull samples used in CRC calculations : YesUsed interface : Native Win32 interface for Win NT & 2000Gap handling : Appended to previous track
Used output format : Internal WAV RoutinesSample format : 44.100 Hz; 16 Bit; Stereo
TOC of the extracted CD
Track | Start | Length | Start sector | End sector --------------------------------------------------------- 1 | 0:00.00 | 5:06.55 | 0 | 23004 2 | 5:06.55 | 4:25.72 | 23005 | 42951 3 | 9:32.52 | 5:16.35 | 42952 | 66686 4 | 14:49.12 | 4:48.58 | 66687 | 88344 5 | 19:37.70 | 4:52.32 | 88345 | 110276 6 | 24:30.27 | 3:55.23 | 110277 | 127924 7 | 28:25.50 | 4:43.02 | 127925 | 149151 8 | 33:08.52 | 4:23.00 | 149152 | 168876 9 | 37:31.52 | 4:11.23 | 168877 | 187724 10 | 41:43.00 | 5:00.05 | 187725 | 210229 11 | 46:43.05 | 4:48.62 | 210230 | 231891 12 | 51:31.67 | 4:47.05 | 231892 | 253421 13 | 56:18.72 | 4:15.13 | 253422 | 272559 14 | 60:34.10 | 4:30.20 | 272560 | 292829 15 | 65:04.30 | 4:37.55 | 292830 | 313659 16 | 69:42.10 | 5:40.37 | 313660 | 339196
Track 1
Filename V:\VA - Hardcore Slam 1 [1996]\CD1\01 - Rotterdam Terror Corps - Hardcore Slam.wav
Pre-gap length 0:00:02.00
Peak level 98.8 % Track quality 100.0 % Test CRC CB455F94 Copy CRC CB455F94 Track not present in AccurateRip database Copy OK
Track 2
Filename V:\VA - Hardcore Slam 1 [1996]\CD1\02 - Brothers In Crime - Forever (Club Mix).wav
Peak level 98.8 % Track quality 99.9 % Test CRC 873AB9FE Copy CRC 873AB9FE Track not present in AccurateRip database Copy OK
Track 3
Filename V:\VA - Hardcore Slam 1 [1996]\CD1\03 - Highlander - Hold Me Now (I'm Sorry).wav
Peak level 97.1 % Track quality 99.9 % Test CRC 111E415C Copy CRC 111E415C Track not present in AccurateRip database Copy OK
Track 4
Filename V:\VA - Hardcore Slam 1 [1996]\CD1\04 - Paul Elstak - Dont Leave Me Alone (Hardcore Version).wav
Peak level 98.8 % Track quality 100.0 % Test CRC 230720E9 Copy CRC 230720E9 Track not present in AccurateRip database Copy OK
Track 5
Filename V:\VA - Hardcore Slam 1 [1996]\CD1\05 - DJ Isaac - Bad Dreams (Remix).wav
Peak level 98.8 % Track quality 100.0 % Test CRC 5F394FC1 Copy CRC 5F394FC1 Track not present in AccurateRip database Copy OK
Track 6
Filename V:\VA - Hardcore Slam 1 [1996]\CD1\06 - Waxweazle vs Guitar Rob - Spread Your Wings.wav
Peak level 97.3 % Track quality 100.0 % Test CRC F48B9351 Copy CRC F48B9351 Track not present in AccurateRip database Copy OK
Track 7
Filename V:\VA - Hardcore Slam 1 [1996]\CD1\07 - Profound - Let Da Music Play.wav
Peak level 97.3 % Track quality 100.0 % Test CRC B0F05D05 Copy CRC B0F05D05 Track not present in AccurateRip database Copy OK
Track 8
Filename V:\VA - Hardcore Slam 1 [1996]\CD1\08 - DJ Isaac - We Like Marihuana (Extended Hardcore Version).wav
Peak level 98.8 % Track quality 99.9 % Test CRC A8F4C8FE Copy CRC A8F4C8FE Track not present in AccurateRip database Copy OK
Track 9
Filename V:\VA - Hardcore Slam 1 [1996]\CD1\09 - Profound - You Got It.wav
Peak level 98.8 % Track quality 100.0 % Test CRC 1BBEE9D1 Copy CRC 1BBEE9D1 Track not present in AccurateRip database Copy OK
Track 10
Filename V:\VA - Hardcore Slam 1 [1996]\CD1\10 - Highlander - Everytime (Hardcore Mix).wav
Peak level 98.8 % Track quality 100.0 % Test CRC 75E556EC Copy CRC 75E556EC Track not present in AccurateRip database Copy OK
Track 11
Filename V:\VA - Hardcore Slam 1 [1996]\CD1\11 - Damage Inc. - Turn Around (Live Version).wav
Peak level 97.3 % Track quality 100.0 % Test CRC BEA83588 Copy CRC BEA83588 Track not present in AccurateRip database Copy OK
Track 12
Filename V:\VA - Hardcore Slam 1 [1996]\CD1\12 - Infernus - I Want Your Love.wav
Peak level 98.8 % Track quality 100.0 % Test CRC 4AD9E680 Copy CRC 4AD9E680 Track not present in AccurateRip database Copy OK
Track 13
Filename V:\VA - Hardcore Slam 1 [1996]\CD1\13 - Stingray & Sonicdriver - As Cold As Ice (Original Remastered).wav
Peak level 98.8 % Track quality 100.0 % Test CRC C5475BD6 Copy CRC C5475BD6 Track not present in AccurateRip database Copy OK
Track 14
Filename V:\VA - Hardcore Slam 1 [1996]\CD1\14 - The Party Gangsta - Gangsta Megamix.wav
Peak level 98.8 % Track quality 100.0 % Test CRC B14F4270 Copy CRC B14F4270 Track not present in AccurateRip database Copy OK
Track 15
Filename V:\VA - Hardcore Slam 1 [1996]\CD1\15 - DJ Gizmo & Dark Raver - We Got The Juice (The Giz & Darkie's Original Mix).wav
Peak level 98.8 % Track quality 100.0 % Test CRC E9D22B19 Copy CRC E9D22B19 Track not present in AccurateRip database Copy OK
Track 16
Filename V:\VA - Hardcore Slam 1 [1996]\CD1\16 - Infernus - Runaway.wav
Peak level 98.8 % Track quality 100.0 % Test CRC B5B1B1A4 Copy CRC B5B1B1A4 Track not present in AccurateRip database Copy OK
None of the tracks are present in the AccurateRip database
No errors occurred
End of status report

Лог создания рипа (CD2):

Exact Audio Copy V0.99 prebeta 5 from 4. May 2009
EAC extraction logfile from 2. December 2010, 18:24
VA / Hardcore Slam
Used drive : PIONEER DVD-RW DVR-215L Adapter: 2 ID: 5
Read mode : SecureUtilize accurate stream : YesDefeat audio cache : YesMake use of C2 pointers : No
Read offset correction : 48Overread into Lead-In and Lead-Out : NoFill up missing offset samples with silence : YesDelete leading and trailing silent blocks : NoNull samples used in CRC calculations : YesUsed interface : Native Win32 interface for Win NT & 2000Gap handling : Appended to previous track
Used output format : Internal WAV RoutinesSample format : 44.100 Hz; 16 Bit; Stereo
TOC of the extracted CD
Track | Start | Length | Start sector | End sector --------------------------------------------------------- 1 | 0:00.00 | 5:29.45 | 0 | 24719 2 | 5:29.45 | 4:56.55 | 24720 | 46974 3 | 10:26.25 | 5:55.03 | 46975 | 73602 4 | 16:21.28 | 4:38.55 | 73603 | 94507 5 | 21:00.08 | 4:30.22 | 94508 | 114779 6 | 25:30.30 | 5:41.58 | 114780 | 140412 7 | 31:12.13 | 5:10.60 | 140413 | 163722 8 | 36:22.73 | 4:28.20 | 163723 | 183842 9 | 40:51.18 | 4:33.50 | 183843 | 204367 10 | 45:24.68 | 5:31.55 | 204368 | 229247 11 | 50:56.48 | 4:27.00 | 229248 | 249272 12 | 55:23.48 | 5:20.05 | 249273 | 273277 13 | 60:43.53 | 4:35.35 | 273278 | 293937 14 | 65:19.13 | 4:10.60 | 293938 | 312747 15 | 69:29.73 | 5:22.40 | 312748 | 336937 16 | 74:52.38 | 3:57.37 | 336938 | 354749
Track 1
Filename V:\VA - Hardcore Slam 1 [1996]\CD2\01 - Rob Gee - Ecstasy, You Got What I Need.wav
Pre-gap length 0:00:02.00
Peak level 98.4 % Track quality 100.0 % Test CRC 1E8AE32B Copy CRC 1E8AE32B Track not present in AccurateRip database Copy OK
Track 2
Filename V:\VA - Hardcore Slam 1 [1996]\CD2\02 - The Bazeman - Bazeman.wav
Pre-gap length 0:00:00.02
Peak level 98.4 % Track quality 100.0 % Test CRC C3512513 Copy CRC C3512513 Track not present in AccurateRip database Copy OK
Track 3
Filename V:\VA - Hardcore Slam 1 [1996]\CD2\03 - Rollersquad - Seriously.wav
Pre-gap length 0:00:00.05
Peak level 98.4 % Track quality 100.0 % Test CRC E4E7F690 Copy CRC E4E7F690 Track not present in AccurateRip database Copy OK
Track 4
Filename V:\VA - Hardcore Slam 1 [1996]\CD2\04 - Sigma 909 - Out Of Sight.wav
Pre-gap length 0:00:00.13
Peak level 98.4 % Track quality 100.0 % Test CRC D48E4D45 Copy CRC D48E4D45 Track not present in AccurateRip database Copy OK
Track 5
Filename V:\VA - Hardcore Slam 1 [1996]\CD2\05 - Revolution Team - Fuck The Bitch.wav
Pre-gap length 0:00:00.13
Peak level 98.4 % Track quality 99.9 % Test CRC 37EF4B75 Copy CRC 37EF4B75 Track not present in AccurateRip database Copy OK
Track 6
Filename V:\VA - Hardcore Slam 1 [1996]\CD2\06 - Waxweazle meets DJ Delirium - Inside Da Rhythm.wav
Pre-gap length 0:00:00.17
Peak level 89.4 % Track quality 100.0 % Test CRC 1A95A626 Copy CRC 1A95A626 Track not present in AccurateRip database Copy OK
Track 7
Filename V:\VA - Hardcore Slam 1 [1996]\CD2\07 - DJ Ruffneck & DJ Mickey - Doodlesex.wav
Pre-gap length 0:00:00.05
Peak level 98.4 % Track quality 99.9 % Test CRC 9D6899FE Copy CRC 9D6899FE Track not present in AccurateRip database Copy OK
Track 8
Filename V:\VA - Hardcore Slam 1 [1996]\CD2\08 - Myrmidon - No Choice.wav
Pre-gap length 0:00:00.13
Peak level 98.4 % Track quality 100.0 % Test CRC BDFD6194 Copy CRC BDFD6194 Track not present in AccurateRip database Copy OK
Track 9
Filename V:\VA - Hardcore Slam 1 [1996]\CD2\09 - Sho Nuff - Time Is Eternal.wav
Pre-gap length 0:00:00.15
Peak level 98.4 % Track quality 100.0 % Test CRC E2D8D02A Copy CRC E2D8D02A Track not present in AccurateRip database Copy OK
Track 10
Filename V:\VA - Hardcore Slam 1 [1996]\CD2\10 - Rollersquad - Rollin'.wav
Pre-gap length 0:00:00.10
Peak level 98.4 % Track quality 99.9 % Test CRC 1353C3BB Copy CRC 1353C3BB Track not present in AccurateRip database Copy OK
Track 11
Filename V:\VA - Hardcore Slam 1 [1996]\CD2\11 - DJ Pagan - Get Down Easy.wav
Pre-gap length 0:00:00.28
Peak level 98.4 % Track quality 100.0 % Test CRC E42D991B Copy CRC E42D991B Track not present in AccurateRip database Copy OK
Track 12
Filename V:\VA - Hardcore Slam 1 [1996]\CD2\12 - Roger - Energy.wav
Pre-gap length 0:00:00.08
Peak level 98.4 % Track quality 100.0 % Test CRC C38A31FF Copy CRC C38A31FF Track not present in AccurateRip database Copy OK
Track 13
Filename V:\VA - Hardcore Slam 1 [1996]\CD2\13 - Neophyte - Technoblast.wav
Pre-gap length 0:00:00.25
Peak level 98.4 % Track quality 100.0 % Test CRC 9B5DDD68 Copy CRC 9B5DDD68 Track not present in AccurateRip database Copy OK
Track 14
Filename V:\VA - Hardcore Slam 1 [1996]\CD2\14 - DJ Pagan - We Do It.wav
Pre-gap length 0:00:00.08
Peak level 98.4 % Track quality 100.0 % Test CRC 2CB43B27 Copy CRC 2CB43B27 Track not present in AccurateRip database Copy OK
Track 15
Filename V:\VA - Hardcore Slam 1 [1996]\CD2\15 - Sigma 909 - Hardcore Slam.wav
Pre-gap length 0:00:00.10
Peak level 98.4 % Track quality 100.0 % Test CRC 4435A406 Copy CRC 4435A406 Track not present in AccurateRip database Copy OK
Track 16
Filename V:\VA - Hardcore Slam 1 [1996]\CD2\16 - Razor - A Day In Paradise.wav
Pre-gap length 0:00:00.40
Peak level 98.4 % Track quality 100.0 % Test CRC 07B94FAF Copy CRC 07B94FAF Track not present in AccurateRip database Copy OK
None of the tracks are present in the AccurateRip database
No errors occurred
End of status report

Содержание индексной карты (CD1):

REM GENRE HardcoreREM DATE 1996REM DISCID EA11AA10REM COMMENT "ExactAudioCopy v0.99pb5"PERFORMER "VA"TITLE "Hardcore Slam"FILE "01 - Rotterdam Terror Corps - Hardcore Slam.wav" WAVE TRACK 01 AUDIO TITLE "Hardcore Slam" PERFORMER "Rotterdam Terror Corps" INDEX 01 00:00:00FILE "02 - Brothers In Crime - Forever (Club Mix).wav" WAVE TRACK 02 AUDIO TITLE "Forever (Club Mix)" PERFORMER "Brothers In Crime" INDEX 01 00:00:00FILE "03 - Highlander - Hold Me Now (I'm Sorry).wav" WAVE TRACK 03 AUDIO TITLE "Hold Me Now (I'm Sorry)" PERFORMER "Highlander" INDEX 01 00:00:00FILE "04 - Paul Elstak - Dont Leave Me Alone (Hardcore Version).wav" WAVE TRACK 04 AUDIO TITLE "Dont Leave Me Alone (Hardcore Version)" PERFORMER "Paul Elstak - " INDEX 01 00:00:00FILE "05 - DJ Isaac - Bad Dreams (Remix).wav" WAVE TRACK 05 AUDIO TITLE "Bad Dreams (Remix)" PERFORMER "DJ Isaac" INDEX 01 00:00:00FILE "06 - Waxweazle vs Guitar Rob - Spread Your Wings.wav" WAVE TRACK 06 AUDIO TITLE "Spread Your Wings" PERFORMER "Waxweazle vs Guitar Rob" INDEX 01 00:00:00FILE "07 - Profound - Let Da Music Play.wav" WAVE TRACK 07 AUDIO TITLE "Let Da Music Play" PERFORMER "Profound" INDEX 01 00:00:00FILE "08 - DJ Isaac - We Like Marihuana (Extended Hardcore Version).wav" WAVE TRACK 08 AUDIO TITLE "We Like Marihuana (Extended Hardcore Version)" PERFORMER "DJ Isaac" INDEX 01 00:00:00FILE "09 - Profound - You Got It.wav" WAVE TRACK 09 AUDIO TITLE "You Got It" PERFORMER "Profound" INDEX 01 00:00:00FILE "10 - Highlander - Everytime (Hardcore Mix).wav" WAVE TRACK 10 AUDIO TITLE "Everytime (Hardcore Mix)" PERFORMER "Highlander" INDEX 01 00:00:00FILE "11 - Damage Inc. - Turn Around (Live Version).wav" WAVE TRACK 11 AUDIO TITLE "Turn Around (Live Version)" PERFORMER "Damage Inc." INDEX 01 00:00:00FILE "12 - Infernus - I Want Your Love.wav" WAVE TRACK 12 AUDIO TITLE "I Want Your Love" PERFORMER "Infernus" INDEX 01 00:00:00FILE "13 - Stingray & Sonicdriver - As Cold As Ice (Original Remastered).wav" WAVE TRACK 13 AUDIO TITLE "As Cold As Ice (Original Remastered)" PERFORMER "Stingray & Sonicdriver" INDEX 01 00:00:00FILE "14 - The Party Gangsta - Gangsta Megamix.wav" WAVE TRACK 14 AUDIO TITLE "Gangsta Megamix" PERFORMER "The Party Gangsta" INDEX 01 00:00:00FILE "15 - DJ Gizmo & Dark Raver - We Got The Juice (The Giz & Darkie's Original Mix).wav" WAVE TRACK 15 AUDIO TITLE "We Got The Juice (The Giz & Darkie's Original Mix)" PERFORMER "DJ Gizmo & Dark Raver" INDEX 01 00:00:00FILE "16 - Infernus - Runaway.wav" WAVE TRACK 16 AUDIO TITLE "Runaway" PERFORMER "Infernus" INDEX 01 00:00:00

Содержание индексной карты (CD2):

REM GENRE HardcoreREM DATE 1996REM DISCID E5127A10REM COMMENT "ExactAudioCopy v0.99pb5"PERFORMER "VA"TITLE "Hardcore Slam"FILE "01 - Rob Gee - Ecstasy, You Got What I Need.wav" WAVE TRACK 01 AUDIO TITLE "Ecstasy, You Got What I Need" PERFORMER "Rob Gee" INDEX 01 00:00:00 TRACK 02 AUDIO TITLE "Bazeman" PERFORMER "The Bazeman" INDEX 00 05:29:43FILE "02 - The Bazeman - Bazeman.wav" WAVE INDEX 01 00:00:00 TRACK 03 AUDIO TITLE "Seriously" PERFORMER "Rollersquad" INDEX 00 04:56:50FILE "03 - Rollersquad - Seriously.wav" WAVE INDEX 01 00:00:00 TRACK 04 AUDIO TITLE "Out Of Sight" PERFORMER "Sigma 909" INDEX 00 05:54:65FILE "04 - Sigma 909 - Out Of Sight.wav" WAVE INDEX 01 00:00:00 TRACK 05 AUDIO TITLE "Fuck The Bitch" PERFORMER "Revolution Team" INDEX 00 04:38:42FILE "05 - Revolution Team - Fuck The Bitch.wav" WAVE INDEX 01 00:00:00 TRACK 06 AUDIO TITLE "Inside Da Rhythm" PERFORMER "Waxweazle meets DJ Delirium" INDEX 00 04:30:05FILE "06 - Waxweazle meets DJ Delirium - Inside Da Rhythm.wav" WAVE INDEX 01 00:00:00 TRACK 07 AUDIO TITLE "Doodlesex" PERFORMER "DJ Ruffneck & DJ Mickey" INDEX 00 05:41:53FILE "07 - DJ Ruffneck & DJ Mickey - Doodlesex.wav" WAVE INDEX 01 00:00:00 TRACK 08 AUDIO TITLE "No Choice" PERFORMER "Myrmidon" INDEX 00 05:10:47FILE "08 - Myrmidon - No Choice.wav" WAVE INDEX 01 00:00:00 TRACK 09 AUDIO TITLE "Time Is Eternal" PERFORMER "Sho Nuff" INDEX 00 04:28:05FILE "09 - Sho Nuff - Time Is Eternal.wav" WAVE INDEX 01 00:00:00 TRACK 10 AUDIO TITLE "Rollin'" PERFORMER "Rollersquad" INDEX 00 04:33:40FILE "10 - Rollersquad - Rollin'.wav" WAVE INDEX 01 00:00:00 TRACK 11 AUDIO TITLE "Get Down Easy" PERFORMER "DJ Pagan" INDEX 00 05:31:27FILE "11 - DJ Pagan - Get Down Easy.wav" WAVE INDEX 01 00:00:00 TRACK 12 AUDIO TITLE "Energy" PERFORMER "Roger" INDEX 00 04:26:67FILE "12 - Roger - Energy.wav" WAVE INDEX 01 00:00:00 TRACK 13 AUDIO TITLE "Technoblast" PERFORMER "Neophyte" INDEX 00 05:19:55FILE "13 - Neophyte - Technoblast.wav" WAVE INDEX 01 00:00:00 TRACK 14 AUDIO TITLE "We Do It" PERFORMER "DJ Pagan" INDEX 00 04:35:27FILE "14 - DJ Pagan - We Do It.wav" WAVE INDEX 01 00:00:00 TRACK 15 AUDIO TITLE "Hardcore Slam" PERFORMER "Sigma 909" INDEX 00 04:10:50FILE "15 - Sigma 909 - Hardcore Slam.wav" WAVE INDEX 01 00:00:00 TRACK 16 AUDIO TITLE "A Day In Paradise" PERFORMER "Razor" INDEX 00 05:22:00FILE "16 - Razor - A Day In Paradise.wav" WAVE INDEX 01 00:00:00

Лог проверки качества (CD1):

AUDIOCHECKER v2.0 beta (build 457) - by Dester - opdester@freemail.hu~~~~~~~~~~~~~~~~~~~~~~~~~~~~~~~~~~-=== DO NOT EDIT THIS FILE! ===-
Path: ...\CD1
01 -=- 01 - Rotterdam Terror Corps - Hardcore Slam.flac -=- CDDA (100%)02 -=- 02 - Brothers In Crime - Forever (Club Mix).flac -=- CDDA (100%)03 -=- 03 - Highlander - Hold Me Now (I'm Sorry).flac -=- CDDA (99%)04 -=- 04 - Paul Elstak - Dont Leave Me Alone (Hardcore Version).flac -=- CDDA (100%)05 -=- 05 - DJ Isaac - Bad Dreams (Remix).flac -=- MPEG (95%)06 -=- 06 - Waxweazle vs Guitar Rob - Spread Your Wings.flac -=- CDDA (100%)07 -=- 07 - Profound - Let Da Music Play.flac -=- CDDA (100%)08 -=- 08 - DJ Isaac - We Like Marihuana (Extended Hardcore Version).flac -=- MPEG (95%)09 -=- 09 - Profound - You Got It.flac -=- CDDA (99%)10 -=- 10 - Highlander - Everytime (Hardcore Mix).flac -=- CDDA (100%)11 -=- 11 - Damage Inc. - Turn Around (Live Version).flac -=- CDDA (100%)12 -=- 12 - Infernus - I Want Your Love.flac -=- CDDA (100%)13 -=- 13 - Stingray & Sonicdriver - As Cold As Ice (Original Remastered).flac -=- CDDA (100%)14 -=- 14 - The Party Gangsta - Gangsta Megamix.flac -=- CDDA (100%)15 -=- 15 - DJ Gizmo & Dark Raver - We Got The Juice (The Giz & Darkie's Original Mix).flac -=- CDDA (99%)16 -=- 16 - Infernus - Runaway.flac -=- MPEG (95%)
Summary 82,00% CDDA
35904884

Лог проверки качества (CD2):

AUDIOCHECKER v2.0 beta (build 457) - by Dester - opdester@freemail.hu~~~~~~~~~~~~~~~~~~~~~~~~~~~~~~~~~~-=== DO NOT EDIT THIS FILE! ===-
Path: ...\CD2
01 -=- 01 - Rob Gee - Ecstasy, You Got What I Need.flac -=- CDDA (100%)02 -=- 02 - The Bazeman - Bazeman.flac -=- CDDA (100%)03 -=- 03 - Rollersquad - Seriously.flac -=- CDDA (100%)04 -=- 04 - Sigma 909 - Out Of Sight.flac -=- CDDA (100%)05 -=- 05 - Revolution Team - Fuck The Bitch.flac -=- CDDA (100%)06 -=- 06 - Waxweazle meets DJ Delirium - Inside Da Rhythm.flac -=- CDDA (100%)07 -=- 07 - DJ Ruffneck & DJ Mickey - Doodlesex.flac -=- CDDA (100%)08 -=- 08 - Myrmidon - No Choice.flac -=- CDDA (100%)09 -=- 09 - Sho Nuff - Time Is Eternal.flac -=- MPEG (95%)10 -=- 10 - Rollersquad - Rollin'.flac -=- CDDA (100%)11 -=- 11 - DJ Pagan - Get Down Easy.flac -=- CDDA (100%)12 -=- 12 - Roger - Energy.flac -=- CDDA (100%)13 -=- 13 - Neophyte - Technoblast.flac -=- CDDA (100%)14 -=- 14 - DJ Pagan - We Do It.flac -=- CDDA (100%)15 -=- 15 - Sigma 909 - Hardcore Slam.flac -=- CDDA (100%)16 -=- 16 - Razor - A Day In Paradise.flac -=- CDDA (87%)
Summary 93,25% CDDA
84761524

Скриншот спектра частот (CD1):

Скриншот спектра частот (CD2):



[islamvillage.com]_t_3314034.torrent
Торрент: Зарегистрирован ·  [ 2018-01-06 23:00 ] ·  789253a31fd870c3e8b7d05ca56758ed4bb8d50e

17 KB

Статус: проверено
Скачан: 0 раз
Размер: 1.06 GB
Оценка: 
(Голосов: 0)
Сказали спасибо: 0  Спасибо
Похожие темы
[Профиль]    [ЛС]
Показать сообщения:    
Ответить на тему

Текущее время: Сегодня 01:45

Часовой пояс: GMT + 7



Вы не можете начинать темы
Вы не можете отвечать на сообщения
Вы не можете редактировать свои сообщения
Вы не можете удалять свои сообщения
Вы не можете голосовать в опросах
Вы не можете прикреплять файлы к сообщениям
Вы можете скачивать файлы


GUIDA CAMBIO DNS | Más detalles | Nowhere Mind