(UK hardcore) [CD] VA - Ravestars - 2017 - (FSMCD-002) - 1CD, FLAC (image+.cue), lossless

Ответить на тему
Статистика раздачи [Обновить пиров]
Размер:  560 MB   |    Зарегистрирован:  1 год   |    Скачан:  1 раз

Полного источника не было: 6 месяцев 17 дней

 
   
 
 
 
Автор Сообщение

islamvillage.com

Создавать темы 06-Янв-2018 23:00

[Цитировать]

VA - Ravestars (Mixed by Future Shock & Haze)
Жанр: UK hardcore
Носитель: CD
Страна-производитель диска (релиза): UK
Год издания: 2017
Издатель (лейбл): Future State Music
Номер по каталогу: FSMCD-002
Аудиокодек: FLAC (*.flac)
Тип рипа: image+.cue
Битрейт аудио: lossless
Продолжительность: 01:12:25
Источник (релизер): Собственный CD
Наличие сканов в содержимом раздачи: нет
Треклист:
01. M-Project & Future Shock feat. Zoe VanWest - Under The Lights [0:02:05.00]
02. Tamerax & Alanna Sterling - Alive [0:02:25.00]
03. Impact & Haze vs. Eruption - Surrender (Eufeion & Denile Remix) [0:01:29.00]
04. S3RL feat. Lexi - Boomerang [0:03:07.00]
05. NeoQor feat. Kitty-Chan & MC Darmoc - Rave On! [0:03:08.00]
06. S3RL feat. Tamika - Rainbow Girl (Future Shock Remix) [0:02:56.00]
07. JTS - I Told You (Daniel Seven Remix) [0:03:40.00]
08. Daniel Seven - Virtus [0:03:17.00]
09. Burnout - Party Jumping [0:01:16.00]
10. Joey Riot vs. Mille Pattes & U4rix - Let's Get Down [0:02:56.00]
11. Demcore - Rock Your Body [0:02:42.00]
12. Riko vs. Sarcotic & Mashed - Come Get It [0:02:58.00]
13. Lady Dubbz - Werewolf [0:01:17.00]
14. Daniel Seven - Momentum (Jakka-B Remix) [0:03:51.00]
15. DJC - ShakeDown [0:01:27.00]
16. Andy Wilson - Feel So Free [0:04:02.00]
17. Fallon - Somewhere (Original Mix) [0:02:12.00]
18. RedMoon & Meron Ryan - Heavyweight (AoS & Denile Remix) [0:01:49.00]
19. Andy Wilson - Eternity [0:01:50.00]
20. Chris Fear - Pull Me Up [0:02:23.00]
21. NeoQor & Clayfighter - When We Meet Again [0:01:38.00]
22. AoS - Blast Em' [0:01:50.00]
23. Nakura - Elements [0:01:39.00]
24. NeoQor & ZoeVanWest - Away From You [0:05:19.00]
25. Finnbarr - Sky That Shines [0:03:15.00]
26. Greg Peaks - Aftermath [0:03:31.00]
27. Digital Commandos - Hardcore Will Never Die [0:04:23.54]

Лог создания рипа

Exact Audio Copy V1.1 from 23. June 2015
EAC extraction logfile from 20. July 2017, 23:41
VA / Ravestars
Used drive : PIONEER DVD-RW DVR-216D Adapter: 1 ID: 1
Read mode : SecureUtilize accurate stream : YesDefeat audio cache : YesMake use of C2 pointers : No
Read offset correction : 96Overread into Lead-In and Lead-Out : NoFill up missing offset samples with silence : YesDelete leading and trailing silent blocks : NoNull samples used in CRC calculations : YesUsed interface : Native Win32 interface for Win NT & 2000
Used output format : Internal WAV RoutinesSample format : 44.100 Hz; 16 Bit; Stereo
TOC of the extracted CD
Track | Start | Length | Start sector | End sector --------------------------------------------------------- 1 | 0:00.00 | 2:05.00 | 0 | 9374 2 | 2:05.00 | 2:25.00 | 9375 | 20249 3 | 4:30.00 | 1:29.00 | 20250 | 26924 4 | 5:59.00 | 3:07.00 | 26925 | 40949 5 | 9:06.00 | 3:08.00 | 40950 | 55049 6 | 12:14.00 | 2:56.00 | 55050 | 68249 7 | 15:10.00 | 3:40.00 | 68250 | 84749 8 | 18:50.00 | 3:17.00 | 84750 | 99524 9 | 22:07.00 | 1:16.00 | 99525 | 105224 10 | 23:23.00 | 2:56.00 | 105225 | 118424 11 | 26:19.00 | 2:42.00 | 118425 | 130574 12 | 29:01.00 | 2:58.00 | 130575 | 143924 13 | 31:59.00 | 1:17.00 | 143925 | 149699 14 | 33:16.00 | 3:51.00 | 149700 | 167024 15 | 37:07.00 | 1:27.00 | 167025 | 173549 16 | 38:34.00 | 4:02.00 | 173550 | 191699 17 | 42:36.00 | 2:12.00 | 191700 | 201599 18 | 44:48.00 | 1:49.00 | 201600 | 209774 19 | 46:37.00 | 1:50.00 | 209775 | 218024 20 | 48:27.00 | 2:23.00 | 218025 | 228749 21 | 50:50.00 | 1:38.00 | 228750 | 236099 22 | 52:28.00 | 1:50.00 | 236100 | 244349 23 | 54:18.00 | 1:39.00 | 244350 | 251774 24 | 55:57.00 | 5:19.00 | 251775 | 275699 25 | 61:16.00 | 3:15.00 | 275700 | 290324 26 | 64:31.00 | 3:31.00 | 290325 | 306149 27 | 68:02.00 | 4:23.54 | 306150 | 325928
Range status and errors
Selected range
Filename D:\flacs\Ravestars\VA - Ravestars.wav
Peak level 98.8 % Extraction speed 7.1 X Range quality 100.0 % Test CRC F5F3BB9D Copy CRC F5F3BB9D Copy OK
No errors occurred
AccurateRip summary
Track 1 not present in databaseTrack 2 not present in databaseTrack 3 not present in databaseTrack 4 not present in databaseTrack 5 not present in databaseTrack 6 not present in databaseTrack 7 not present in databaseTrack 8 not present in databaseTrack 9 not present in databaseTrack 10 not present in databaseTrack 11 not present in databaseTrack 12 not present in databaseTrack 13 not present in databaseTrack 14 not present in databaseTrack 15 not present in databaseTrack 16 not present in databaseTrack 17 not present in databaseTrack 18 not present in databaseTrack 19 not present in databaseTrack 20 not present in databaseTrack 21 not present in databaseTrack 22 not present in databaseTrack 23 not present in databaseTrack 24 not present in databaseTrack 25 not present in databaseTrack 26 not present in databaseTrack 27 not present in database
None of the tracks are present in the AccurateRip database
End of status report
---- CUETools DB Plugin V2.1.6
[CTDB TOCID: 39Apf2nit5bnwyq7cDPanu55q8E-] foundSubmit result: already submittedTrack | CTDB Status 1 | (3/3) Accurately ripped 2 | (3/3) Accurately ripped 3 | (3/3) Accurately ripped 4 | (3/3) Accurately ripped 5 | (3/3) Accurately ripped 6 | (3/3) Accurately ripped 7 | (3/3) Accurately ripped 8 | (3/3) Accurately ripped 9 | (3/3) Accurately ripped 10 | (3/3) Accurately ripped 11 | (3/3) Accurately ripped 12 | (3/3) Accurately ripped 13 | (3/3) Accurately ripped 14 | (3/3) Accurately ripped 15 | (3/3) Accurately ripped 16 | (3/3) Accurately ripped 17 | (3/3) Accurately ripped 18 | (3/3) Accurately ripped 19 | (3/3) Accurately ripped 20 | (3/3) Accurately ripped 21 | (3/3) Accurately ripped 22 | (3/3) Accurately ripped 23 | (3/3) Accurately ripped 24 | (3/3) Accurately ripped 25 | (3/3) Accurately ripped 26 | (3/3) Accurately ripped 27 | (3/3) Accurately ripped
==== Log checksum A38A12402431AAFBF7AF7D8CFFAFAAA7AF4752B2616B2DEB6C260704FB5CA55A ====

Лог проверки качества

-----------------------
DON'T MODIFY THIS FILE
-----------------------
PERFORMER: auCDtect Task Manager, ver. 1.6.0 RC1 build 1.6.0.1Copyright (c) 2008-2010 y-soft. All rights reservedhttp://y-soft.org
ANALYZER: auCDtect: CD records authenticity detector, version 0.8.2Copyright (c) 2004 Oleg Berngardt. All rights reserved.Copyright (c) 2004 Alexander Djourik. All rights reserved.
FILE: VA_-_Ravestars.flac Size: 580113358 Hash: ABC20DF38AF49B6636D4ECAF7A3F5B79 Accuracy: -m0 Conclusion: CDDA 100% Signature: B2A9872A34C02A0234AEE0CAD150BF50D5F1CB8D

Доп. информация

Спектр диска включен в раздачу


[islamvillage.com]_t_5499039.torrent
Торрент: Зарегистрирован ·  [ 2018-01-06 23:00 ] ·  385d6682371378b87754ab5d1d6ba78b50962099

12 KB

Статус: проверено
Скачан: 1 раз
Размер: 560 MB
Оценка: 
(Голосов: 0)
Сказали спасибо: 0  Спасибо
Похожие темы
[Профиль]    [ЛС]
Показать сообщения:    
Ответить на тему

Текущее время: Сегодня 02:56

Часовой пояс: GMT + 7



Вы не можете начинать темы
Вы не можете отвечать на сообщения
Вы не можете редактировать свои сообщения
Вы не можете удалять свои сообщения
Вы не можете голосовать в опросах
Вы не можете прикреплять файлы к сообщениям
Вы можете скачивать файлы


Kumo Desu ga, Nani ka? | Richard Long | Download