Именины с костылями / Семейный портрет с посторонним (Евгений Лазарев) [2000, комедия, экранизация, TVRip] Московской Государственный академический театр имени Моссовета

Ответить на тему
Статистика раздачи [Обновить пиров]
Размер:  1.35 GB   |    Зарегистрирован:  11 месяцев 26 дней   |    Скачан:  1 раз

Полного источника не было: 8 месяцев 26 дней

 
   
 
 
 
Автор Сообщение

islamvillage.com

Создавать темы 23-Янв-2018 20:54

[Цитировать]

Именины с костылями / Семейный портрет с посторонним Название театра: Московской Государственный академический театр имени Моссовета.
Год выхода: 2000.
Жанр: комедия, экранизация.
Продолжительность: 01:30:11.
Режиссеры: Евгений Лазарев, заслуженный деятель искусств России Константин Антропов.
Действующие лица и исполнители:
Тимофей - заслуженный артист РСФСР Юрий Кузьменков,
Катерина - Ольга Анохина,
Таня - Марина Кондратьева,
Михаил - Владимир Горюшин,
Виктор - Дмитрий Журавлев,
Бабка - заслуженная артистка РСФСР Наталья Ткачева.
Описание:
По пьесе Степана Лобозерова "Семейный портрет с посторонним".
Молодой художник Виктор приезжает в деревню работать в местном клубе и поселяется в "гостинице" - комнате в частном доме, которую хозяева сдают приезжим. Приятель дочери хозяина, испугавшись, что между приезжим и дочкой хозяина возникнут нежелательные ему отношения, сообщает хозяевам, что гость – сумасшедший. То же самое он рассказывает и художнику о хозяевах. Отсюда - масса комических и смешных положений и ситуаций.

Дополнительная информация:
Страна: Россия .
Выпущено: © Московской Государственный академический театр им. Моссовета.
Автор: Степан Лобозеров.
Режиссер спектакля: Евгений Лазарев.
Художник: народный художник России Март Китаев.
Художник по костюмам: заслуженный художник России Виктория Севрюкова.
Композитор: Александр Чевский.
Зонг "Эй, командир" - музыка Пауля Дессау, зонг Иветты - музыка Курта Вайля.
Тексты песен в переводах Соломона Апта, Ефима Эткинда, Аркадия Штейнберга, Семена Кирсанова, Сергея Коковкина, Александра Митникова.
Режиссер по пластике: Сергей Виноградов.
Художник по свету: Дамир Исмагилов.
Премьера состоялась 7 мая 2000 года.
Операторы: Юрий Назаров, Юрий Журавлев, Михаил Федоров, Борис Новоселов.



Качество видео:...TVRip
Формат файла:.................AVI
Видео:..704x528 (1.33:1), 25 fps, XviD MPEG-4 ~2008 kbps avg, 0.22 bit/pixel
Аудио:..48 kHz, MPEG Layer 3, 2 ch, ~128.00 kbps avg

Отчет MI

Общее
Полное имя : Imeniny.s.kostylyami_Moskovskij.GAT.im.Mossoveta.2000.XviD.TVRip.fenixclub.avi
Format : AVI
Format/Info : Audio Video Interleave
File size : 1.35 GiB
Duration : 1h 30mn
Overall bit rate : 2 146 Kbps
Writing application : VirtualDubModRus 1.5.10.2 (build 2542/release)
Writing library : VirtualDub build 32842/release
Video
ID : 0
Format : MPEG-4 Visual
Format profile : Advanced Simple@L5
Format settings, BVOP : 2
Format settings, QPel : No
Format settings, GMC : No warppoints
Format settings, Matrix : Default (MPEG)
Codec ID : XVID
Codec ID/Hint : XviD
Duration : 1h 30mn
Bit rate : 2 008 Kbps
Width : 704 pixels
Height : 528 pixels
Display aspect ratio : 4:3
Frame rate : 25.000 fps
Color space : YUV
Chroma subsampling : 4:2:0
Bit depth : 8 bits
Scan type : Progressive
Compression mode : Lossy
Bits/(Pixel*Frame) : 0.216
Stream size : 1.27 GiB (94%)
Writing library : XviD 73
Audio
ID : 1
Format : MPEG Audio
Format version : Version 1
Format profile : Layer 3
Mode : Joint stereo
Mode extension : MS Stereo
Codec ID : 55
Codec ID/Hint : MP3
Duration : 1h 30mn
Bit rate mode : Constant
Bit rate : 128 Kbps
Channel(s) : 2 channels
Sampling rate : 48.0 KHz
Compression mode : Lossy
Delay relative to video : 200ms
Stream size : 82.6 MiB (6%)
Alignment : Split accross interleaves
Interleave, duration : 40 ms (1.00 video frame)
Interleave, preload duratio : 500 ms
Writing library : LAME3.98.2

Скриншоты



[islamvillage.com]_t_5510229.torrent
Торрент: Зарегистрирован ·  [ 2018-01-23 20:54 ] ·  41b3da73dc65ddabdf9fc0023358e7ac51b74157

14 KB

Статус: проверено
Скачан: 1 раз
Размер: 1.35 GB
Оценка: 
(Голосов: 0)
Сказали спасибо: 0  Спасибо
Похожие темы
[Профиль]    [ЛС]
Показать сообщения:    
Ответить на тему

Текущее время: Сегодня 09:15

Часовой пояс: GMT + 7



Вы не можете начинать темы
Вы не можете отвечать на сообщения
Вы не можете редактировать свои сообщения
Вы не можете удалять свои сообщения
Вы не можете голосовать в опросах
Вы не можете прикреплять файлы к сообщениям
Вы можете скачивать файлы


Tatsunoko | Sexy V Neck Plain Color Knit T-Shirts | Quad / ATV Yamaha YFM 700R