Сказка про Федота-стрельца, удалого молодца (Елена Кокушкина) [2005, сказка для взрослых, WEB-DLRip] Саратовский Театр русской комедии

Ответить на тему
Статистика раздачи [Обновить пиров]
Размер:  1.09 GB   |    Зарегистрирован:  11 месяцев 19 дней   |    Скачан:  0 раз

Полного источника не было: Никогда

 
   
 
 
 
Автор Сообщение

islamvillage.com

Создавать темы 30-Янв-2018 22:44

[Цитировать]

Сказка про Федота-стрельца, удалого молодца[img=right]http://b.radikal.ru/b26/1801/bc/a83562559711.jpg[/img]
Название театра: Саратовский Театр русской комедии.
Год выхода: 2005.
Жанр: сказка для взрослых.
Продолжительность: 01:10:40.
Режиссер: Елена Кокушкина.
Действующие лица и исполнители:
Федот - Владимир Малюгин,
Царь - Александр Новохатский,
Потешники - Константин Тополага, Алексей Рассоховатский,
Царевна - Юлия Лазарева; Марина Стаханова,
Маруся - Ирина Ермакова; Юлия Лазарева,
Нянька - Татьяна Мельник,
Генерал - Валерий Саулов,
Людоед - Владимир Кабанов,
Баба-Яга - Елена Пузанова,
Посол, Мужик - Владимир Кабанов.
Описание:
«Сказ про Федота-стрельца – удалого молодца» – это произведение Леонида Филатова, которое впервые было опубликовано в 1989 году в апрельском номере журнала «Юность». Именно из-за этой публикации весь розничный тираж журнала раскупили за пару дней. Для читающей публики стало откровением, что актер, знакомый всем по фильмам «Забытая мелодия для флейты», «Экипаж» и многим другим, умеет еще и писать такие по-настоящему смешные сказки.
Несколько лет после этой публикации в стране наблюдался «стрельцовый» бум: в театрах и даже школах ставили спектакли по «Сказу...», автора на всех встречах со зрителями просили прочитать хотя бы «отрывок про Федота», а текст растащили на цитаты.

Дополнительная информация:
Страна: Россия .
Автор: Леонид Филатов.
[img]http://a.radikal.ru/a14/1801/68/5629053c2f1d.jpg[/img]

Рип sharky.

Качество видео:...WEB-DLRip
Формат файла:.................AVI
Видео:..704x400 (1.76:1), 25 fps, XviD build 47 ~2003 kbps avg, 0.28 bit/pixel
Аудио:..48 kHz, AC3 Dolby Digital, 2/0 (L,R) ch, ~192 kbps

Отчет Media Info

General
Complete name : Skazka.pro.Fedota-strel'tsa.udalogo.molodtsa_Saratovskij.teatr.russkoj.komedii.2005.XviD.WEB-DLRip.fenixclub.avi
Format : AVI
Format/Info : Audio Video Interleave
File size : 1.09 GiB
Duration : 1h 10mn
Overall bit rate : 2 206 Kbps
Writing application : VirtualDubMod 1.5.10.2 (build 2540/release)
Writing library : VirtualDubMod build 2540/release
Video
ID : 0
Format : MPEG-4 Visual
Format profile : Advanced Simple@L5
Format settings, BVOP : 1
Format settings, QPel : No
Format settings, GMC : No warppoints
Format settings, Matrix : Default (H.263)
Codec ID : XVID
Codec ID/Hint : XviD
Duration : 1h 10mn
Bit rate : 2 004 Kbps
Width : 704 pixels
Height : 400 pixels
Display aspect ratio : 16:9
Frame rate : 25.000 fps
Color space : YUV
Chroma subsampling : 4:2:0
Bit depth : 8 bits
Scan type : Progressive
Compression mode : Lossy
Bits/(Pixel*Frame) : 0.285
Stream size : 1 013 MiB (91%)
Writing library : XviD 1.2.0.dev47 (UTC 2006-11-01)
Audio
ID : 1
Format : AC-3
Format/Info : Audio Coding 3
Mode extension : CM (complete main)
Format settings, Endianness : Big
Codec ID : 2000
Duration : 1h 10mn
Bit rate mode : Constant
Bit rate : 192 Kbps
Channel(s) : 2 channels
Channel positions : Front: L R
Sampling rate : 48.0 KHz
Frame rate : 31.250 fps (1536 spf)
Compression mode : Lossy
Stream size : 97.0 MiB (9%)
Alignment : Split accross interleaves
Interleave, duration : 40 ms (1.00 video frame)
Interleave, preload duratio : 500 ms

Скриншоты




[islamvillage.com]_t_5513792.torrent
Торрент: Зарегистрирован ·  [ 2018-01-30 22:42 ] ·  5118d8e84710264a3cae5874f7e2ed48bb92b888

11 KB

Статус: проверено
Скачан: 0 раз
Размер: 1.09 GB
Оценка: 
(Голосов: 0)
Сказали спасибо: 0  Спасибо
Похожие темы
[Профиль]    [ЛС]
Показать сообщения:    
Ответить на тему

Текущее время: Сегодня 09:50

Часовой пояс: GMT + 7



Вы не можете начинать темы
Вы не можете отвечать на сообщения
Вы не можете редактировать свои сообщения
Вы не можете удалять свои сообщения
Вы не можете голосовать в опросах
Вы не можете прикреплять файлы к сообщениям
Вы можете скачивать файлы


Play Movie | Rock and Roll | Download McAfee Antivirus PLUS 2019 1 Year Unlimited Devices WINDOWS MAC ANDROID