Сон в летнюю ночь (Роман Мархолиа) [2010, комедия, WEB-DLRip] Государственный Академический ордена "Знак почёта" Русский Драматический театр им А.С. Пушкина Республики Саха (Якутия)

Ответить на тему
Статистика раздачи [Обновить пиров]
Размер:  1.44 GB   |    Зарегистрирован:  11 месяцев 4 дня   |    Скачан:  0 раз

Полного источника не было: Никогда

 
   
 
 
 
Автор Сообщение

islamvillage.com

Создавать темы 13-Фев-2018 21:21

[Цитировать]

Сон в летнюю ночь Название театра: Государственный Академический ордена "Знак почёта" Русский Драматический театр им А.С. Пушкина Республики Саха (Якутия).
Год выхода: 2010.
Жанр: комедия.
Продолжительность: 01:42:37.
Режиссер: Роман Мархолиа (Москва).
В ролях: артисты театра и дети-инвалиды.
Описание:
Гениальный Шекспир 400 лет назад написал "Сон в летнюю ночь" как будто о нашем времени. Люди в борьбе за выживание в новых жизненных реалиях забыли о главном. А главное – не в распрях и кошмарах, и даже не в деньгах, а в любви и милосердии, не в разъединении людей, но в их объединении.
Дополнительная информация:
Страна: Россия .
Выпущено: ООО Студия "Диалог" по заказу ГАРДТ им. А. С. Пушкина.
Автор: Уильям Шекспир.
Перевод: Татьяна Щепкина-Куперник.
Музыка: Николай Морозов.
[img]http://a.radikal.ru/a41/1802/06/5fec5b54b65d.jpg[/img]

Рип sharky.

Качество видео:...WEB-DLRip
Формат файла:.................AVI
Видео:..704x400 (1.76:1), 25 fps, DivX Codec 4.x ~1813 kbps avg, 0.26 bit/pixel
Аудио:..48 kHz, AC3 Dolby Digital, 2/0 (L,R) ch, ~192 kbps

Отчет Media Info

General
Complete name : Son.v.letnyuyu.noch_GARDT.im.A.Pushkina.Respubliki.Saha.2010.DivX.WEB-DLRip.fenixclub.avi
Format : AVI
Format/Info : Audio Video Interleave
File size : 1.44 GiB
Duration : 1h 42mn
Overall bit rate : 2 015 Kbps
Writing application : VirtualDubMod 1.5.10.2 (build 2542/release)
Writing library : VirtualDub build 28292/release
Video
ID : 0
Format : MPEG-4 Visual
Format settings, BVOP : No
Format settings, QPel : No
Format settings, GMC : No warppoints
Format settings, Matrix : Default (H.263)
Codec ID : DX50
Codec ID/Hint : DivX 5
Duration : 1h 42mn
Bit rate : 1 813 Kbps
Width : 704 pixels
Height : 400 pixels
Display aspect ratio : 16:9
Frame rate : 25.000 fps
Color space : YUV
Chroma subsampling : 4:2:0
Bit depth : 8 bits
Scan type : Interlaced
Scan order : Bottom Field First
Compression mode : Lossy
Bits/(Pixel*Frame) : 0.258
Stream size : 1.30 GiB (90%)
Writing library : DivX 3013
Audio
ID : 1
Format : AC-3
Format/Info : Audio Coding 3
Mode extension : CM (complete main)
Format settings, Endianness : Big
Codec ID : 2000
Duration : 1h 42mn
Bit rate mode : Constant
Bit rate : 192 Kbps
Channel(s) : 2 channels
Channel positions : Front: L R
Sampling rate : 48.0 KHz
Frame rate : 31.250 fps (1536 spf)
Compression mode : Lossy
Delay relative to video : 600ms
Stream size : 141 MiB (10%)
Alignment : Split accross interleaves
Interleave, duration : 40 ms (1.00 video frame)
Interleave, preload duratio : 500 ms.

Скриншоты




[islamvillage.com]_t_5516539.torrent
Торрент: Зарегистрирован ·  [ 2018-02-13 21:21 ] ·  d5d6d58857ba1c7f927faa2cd9820f65f7d2abed

15 KB

Статус: проверено
Скачан: 0 раз
Размер: 1.44 GB
Оценка: 
(Голосов: 0)
Сказали спасибо: 0  Спасибо
Похожие темы
[Профиль]    [ЛС]
Показать сообщения:    
Ответить на тему

Текущее время: Сегодня 06:29

Часовой пояс: GMT + 7



Вы не можете начинать темы
Вы не можете отвечать на сообщения
Вы не можете редактировать свои сообщения
Вы не можете удалять свои сообщения
Вы не можете голосовать в опросах
Вы не можете прикреплять файлы к сообщениям
Вы можете скачивать файлы


Education and Level - 1271 Words | Assistant menu 4.0.00.20 | CSET Subtest 1 Reading, Language, Literature