(Happy Hardcore / House) [CDM] Interactive - Forever Young (UK CD-Maxi) - 1995, FLAC (image+.cue), lossless

Ответить на тему
Статистика раздачи [Обновить пиров]
Размер:  245 MB   |    Зарегистрирован:  10 месяцев 12 дней   |    Скачан:  1 раз

Полного источника не было: 7 месяцев 13 дней

 
   
 
 
 
Автор Сообщение

islamvillage.com

Создавать темы 05-Мар-2018 20:28

[Цитировать]


Interactive - Forever Young
(UK CD-Maxi)
Жанр: Happy Hardcore / House
Носитель: CDM
Страна-производитель диска (релиза): UK
Год издания: 1995
Издатель (лейбл): Ffrreedom / Intercord
Номер по каталогу: TABCD 235
Аудиокодек: FLAC (*.flac)
Тип рипа: image+.cue
Битрейт аудио: lossless
Продолжительность: 0:33:24
Источник (релизер): [url=tracker.php?rid=2315404]DENnv (Den Pash)[/url]
Наличие сканов в содержимом раздачи: да, PNG (300 dpi)
Треклист:
1. Forever Young (Radio Edit (Red Jerry Mix)) - 3:40
2. Forever Young (Radio Edit (Original Mix)) - 3:41
3. Forever Young (Red Jerry 12" Mix) - 6:25
4. Forever Young (Original 12" Mix) - 5:59
5. Forever Young (Cocktail Twins 12" Remix) - 6:50
6. Forever Young (Chapter 9 Mix) - 6:47
- -

Лог создания рипа

Exact Audio Copy V1.3 from 2. September 2016
Отчёт EAC об извлечении, выполненном 4. февраля 2018, 21:29
Interactive / Forever Young (UK CDM)
Дисковод: TSSTcorpCDDVDW SH-224DB Adapter: 4 ID: 0
Режим чтения : ДостоверностьИспользование точного потока : ДаОтключение кэша аудио : ДаИспользование указателей C2 : Нет
Коррекция смещения при чтении : 6Способность читать области Lead-in и Lead-out : НетЗаполнение пропущенных сэмплов тишиной : ДаУдаление блоков с тишиной в начале и конце : НетПри вычислениях CRC использовались нулевые сэмплы : ДаИнтерфейс : Установленный внешний ASPI-интерфейс
Выходной формат : Пользовательский кодировщикВыбранный битрейт : 768 kBit/sКачество : ВысокийДобавление ID3-тега : НетУтилита сжатия : C:\Program Files (x86)\Exact Audio Copy\Flac\flac.exeДополнительные параметры : -V -8 -T "Date=%year%" -T "Genre=%genre%" %source%
TOC извлечённого CD
Трек | Старт | Длительность | Начальный сектор | Конечный сектор --------------------------------------------------------------------- 1 | 0:00.33 | 3:40.27 | 33 | 16559 2 | 3:40.60 | 3:41.00 | 16560 | 33134 3 | 7:21.60 | 6:25.10 | 33135 | 62019 4 | 13:46.70 | 5:59.23 | 62020 | 88967 5 | 19:46.18 | 6:50.20 | 88968 | 119737 6 | 26:36.38 | 6:47.70 | 119738 | 150332
Характеристики диапазона извлечения и сообщения об ошибках
Выбранный диапазон
Имя файла F:\=For Torrentc\Interactive - Forever Young (UK CDM) (1994) (lossless-DenPash)\Interactive - Forever Young (UK CDM) (1994) (lossless-DenPash).wav
Пиковый уровень 99.6 % Скорость извлечения 2.5 X Качество диапазона 100.0 % CRC теста 48D603F7 CRC копии 48D603F7 Копирование... OK
Ошибок не произошло
AccurateRip: сводка
Трек 1 : извлечено точно (доверие 2) [019DBABA] (AR v2)Трек 2 : извлечено точно (доверие 2) [7A00498E] (AR v2)Трек 3 : извлечено точно (доверие 2) [200313E1] (AR v2)Трек 4 : извлечено точно (доверие 2) [490C4382] (AR v2)Трек 5 : извлечено точно (доверие 2) [3921E09F] (AR v2)Трек 6 : извлечено точно (доверие 2) [499A981D] (AR v2)
Все треки извлечены точно
Конец отчёта
==== Контрольная сумма отчёта 8004304436B24A7936251E904FC5E8DA5DD596DC2E69F08DBFB664AF88F72652 ====
-Мой рип с фирменного диска, как и все мои лосслесс раздачи.-Ваши комментарии - лучший способ сподвигнуть релизёра раздавать новые рипы.-Раздача проходит под девизом:
-


[islamvillage.com]_t_5526529.torrent
Торрент: Зарегистрирован ·  [ 2018-03-05 20:25 ] ·  88c6d6c276ec379234aa5ffbb93364ac9fe5faca

20 KB

Статус: проверено
Скачан: 1 раз
Размер: 245 MB
Оценка: 
(Голосов: 1)
Сказали спасибо: 1  Спасибо   (список)
Похожие темы
[Профиль]    [ЛС]
Показать сообщения:    
Ответить на тему

Текущее время: Сегодня 03:12

Часовой пояс: GMT + 7



Вы не можете начинать темы
Вы не можете отвечать на сообщения
Вы не можете редактировать свои сообщения
Вы не можете удалять свои сообщения
Вы не можете голосовать в опросах
Вы не можете прикреплять файлы к сообщениям
Вы можете скачивать файлы


Reign Serie TV Streaming Download | أفلام أجنبية أفلام جريمة Web Dl فيلم Blood Brother 2018 مترجم | mitsubishi l200 warrior spares or repair 2005