(Instrumental/Progressive Metal/Ambient/Djent) [WEB]/[CD] Modern Day Babylon - Дискография (4 релиза) (2011-2018), FLAC (tracks)/(tracks+.cue), lossless

Ответить на тему
Статистика раздачи [Обновить пиров]
Размер:  1.07 GB   |    Зарегистрирован:  9 месяцев 22 дня   |    Скачан:  0 раз

Полного источника не было: Никогда

 
   
 
 
 
Автор Сообщение

islamvillage.com

Создавать темы 26-Мар-2018 03:51

[Цитировать]



Жанр: Instrumental/Progressive Metal/Ambient/Djent
Носитель: CD Год издания: 2011-2018
Страна исполнителя (группы): Czech Republic
Аудиокодек: FLAC (*.flac) Тип рипа: tracks+.cue
Битрейт аудио: lossless Продолжительность: 02:36:05
Источник (релизер): what.cd/bandcamp.com
Наличие сканов в содержимом раздачи: нет

2011 - The Manipulation Theory (33:23)

Источник (релизер): WEB bandcamp.com
01 - Key Of Existence (1:26)
02 - The Signs (4:29)
03 - Instant Djentlemen (3:21)
04 - Hearse The Halo (4:46)
05 - Unknown Guest (3:44)
06 - Shivers (4:39)
07 - Universal Intelligence (4:10)
08 - Analog Love (1:54)
09 - Shivers (4:53) (feat. Z. Lipenský)

Лог проверки качества

2601679729 15082244 Modern Day Babylon - Modern Day Babylon - 01 Key of Existence.wav1591266324 47451644 Modern Day Babylon - Modern Day Babylon - 02 The Sings.wav1103621413 35456444 Modern Day Babylon - Modern Day Babylon - 03 Instant Djentlemen.wav1119613165 50450444 Modern Day Babylon - Modern Day Babylon - 04 Hearse the Halo.wav3587020721 39430116 Modern Day Babylon - Modern Day Babylon - 05 Unknown Guest.wav1262317254 49188148 Modern Day Babylon - Modern Day Babylon - 06 Shivers.wav1052387359 44175148 Modern Day Babylon - Modern Day Babylon - 07 Universal Intelligence.wav2376376994 20122952 Modern Day Babylon - Modern Day Babylon - 08 Analog Love.wav3732444934 51685244 Modern Day Babylon - Modern Day Babylon - 09 Shivers (feat. Zdenek Lipensky).wav
auCDtect: CD records authenticity detector, version 0.8.2Copyright (c) 2004 Oleg Berngardt. All rights reserved.Copyright (c) 2004 Alexander Djourik. All rights reserved.------------------------------------------------------------Processing file: [Modern Day Babylon - Modern Day Babylon - 01 Key of Existence.wav]
------------------------------------------------------------This track looks like CDDA with probability 100%
------------------------------------------------------------Processing file: [Modern Day Babylon - Modern Day Babylon - 02 The Sings.wav]
------------------------------------------------------------This track looks like CDDA with probability 100%
------------------------------------------------------------Processing file: [Modern Day Babylon - Modern Day Babylon - 03 Instant Djentlemen.wav]
------------------------------------------------------------This track looks like CDDA with probability 100%
------------------------------------------------------------Processing file: [Modern Day Babylon - Modern Day Babylon - 04 Hearse the Halo.wav]
------------------------------------------------------------This track looks like CDDA with probability 100%
------------------------------------------------------------Processing file: [Modern Day Babylon - Modern Day Babylon - 05 Unknown Guest.wav]
------------------------------------------------------------This track looks like CDDA with probability 100%
------------------------------------------------------------Processing file: [Modern Day Babylon - Modern Day Babylon - 06 Shivers.wav]
------------------------------------------------------------This track looks like CDDA with probability 99%
------------------------------------------------------------Processing file: [Modern Day Babylon - Modern Day Babylon - 07 Universal Intelligence.wav]
------------------------------------------------------------This track looks like CDDA with probability 99%
------------------------------------------------------------Processing file: [Modern Day Babylon - Modern Day Babylon - 08 Analog Love.wav]
------------------------------------------------------------This track looks like CDDA with probability 100%
------------------------------------------------------------Processing file: [Modern Day Babylon - Modern Day Babylon - 09 Shivers (feat. Zdenek Lipensky).wav]
------------------------------------------------------------This track looks like CDDA with probability 100%
------------------------------------------------------------Final Conclusion:------------------------------------------------------------These tracks looks like CDDA with probability 100%

Состав

- Tomas Raclavsky / guitar, keyboards, programing
- Vojtech Seminsky / drums
- Marek Mrvik / bass
Guest:
- David M. Micic / guitar solo (7)

2013 - Travelers (57:23)

Издатель (лейбл): Not On Label (Modern Day Babylon Self-Released)
Номер по каталогу: none
Источник (релизер): what.cd
01 - Astral Storm (2:36)
02 - Lost in Dreams (feat. Jakub Zytecki) (4:02)
03 - Travelers (4:28)
04 - Distant Skyline (feat. Chris Storey) (4:22)
05 - Differentiate (5:18)
06 - Currency (feat. Sergey Golovin) (3:29)
07 - Time Shift (4:38)
08 - Infinity (5:14)
09 - Element (4:28)
10 - Journey of Living (4:09)
11 - Thaller Than Thall (Outro) (2:02)
Bonus tracks:
12 - Currency (Vocal Version) [feat. Maxi Curnow] (3:34)
13 - Differentiate (Vocal Version) [feat. Maxi Curnow] (5:22)
14 - Infinity (Remix) [feat. Matt Holland] (3:30)

Лог создания рипа

Exact Audio Copy V1.0 beta 3 from 29. August 2011
EAC extraction logfile from 1. January 2014, 12:54
Modern Day Babylon / Travelers
Used drive : TSSTcorpCDDVDW SH-S223C Adapter: 0 ID: 0
Read mode : SecureUtilize accurate stream : YesDefeat audio cache : YesMake use of C2 pointers : No
Read offset correction : 697Overread into Lead-In and Lead-Out : NoFill up missing offset samples with silence : YesDelete leading and trailing silent blocks : NoNull samples used in CRC calculations : YesUsed interface : Native Win32 interface for Win NT & 2000Gap handling : Appended to previous track
Used output format : User Defined EncoderSelected bitrate : 1024 kBit/sQuality : HighAdd ID3 tag : NoCommand line compressor : C:\Program Files (x86)\Exact Audio Copy\Flac\flac.exeAdditional command line options : -8 -V -T "ARTIST=%artist%" -T "TITLE=%title%" -T "ALBUM=%albumtitle%" -T "DATE=%year%" -T "TRACKNUMBER=%tracknr%" -T "GENRE=%genre%" -T "PERFORMER=%albuminterpret%" -T "COMPOSER=%composer%" %haslyrics%--tag-from-file=LYRICS="%lyricsfile%"%haslyrics% -T "ALBUMARTIST=%albumartist%" -T "DISCNUMBER=%cdnumber%" -T "TOTALDISCS=%totalcds%" -T "TOTALTRACKS=%numtracks%" -T "COMMENT=%comment%" %source% -o %dest%
TOC of the extracted CD
Track | Start | Length | Start sector | End sector --------------------------------------------------------- 1 | 0:00.00 | 2:36.09 | 0 | 11708 2 | 2:36.09 | 4:02.00 | 11709 | 29858 3 | 6:38.09 | 4:28.00 | 29859 | 49958 4 | 11:06.09 | 4:22.00 | 49959 | 69608 5 | 15:28.09 | 5:18.37 | 69609 | 93495 6 | 20:46.46 | 3:29.37 | 93496 | 109207 7 | 24:16.08 | 4:38.54 | 109208 | 130111 8 | 28:54.62 | 5:13.58 | 130112 | 153644 9 | 34:08.45 | 4:28.00 | 153645 | 173744 10 | 38:36.45 | 4:09.37 | 173745 | 192456 11 | 42:46.07 | 2:04.00 | 192457 | 201756 12 | 44:50.07 | 3:36.00 | 201757 | 217956 13 | 48:26.07 | 5:23.45 | 217957 | 242226 14 | 53:49.52 | 3:29.67 | 242227 | 257968
Track 1
Filename C:\EAC Rips\01 Astral Storm (Intro).wav
Pre-gap length 0:00:02.00
Peak level 97.7 % Extraction speed 1.8 X Track quality 100.0 % Test CRC 5F2DE813 Copy CRC 5F2DE813 Track not present in AccurateRip database Copy OK
Track 2
Filename C:\EAC Rips\02 Lost In Dreams (feat. Jakub Zytecki).wav
Peak level 97.7 % Extraction speed 0.6 X Track quality 99.9 % Test CRC 5934D35C Copy CRC 5934D35C Track not present in AccurateRip database Copy OK
Track 3
Filename C:\EAC Rips\03 Travelers.wav
Peak level 97.7 % Extraction speed 2.4 X Track quality 100.0 % Test CRC 0C6C4F8C Copy CRC 0C6C4F8C Track not present in AccurateRip database Copy OK
Track 4
Filename C:\EAC Rips\04 Distant Skyline (feat. Chris Storey).wav
Peak level 97.7 % Extraction speed 2.6 X Track quality 100.0 % Test CRC CCA90D23 Copy CRC CCA90D23 Track not present in AccurateRip database Copy OK
Track 5
Filename C:\EAC Rips\05 Differentiate.wav
Peak level 97.7 % Extraction speed 2.9 X Track quality 100.0 % Test CRC 5EB7FD04 Copy CRC 5EB7FD04 Track not present in AccurateRip database Copy OK
Track 6
Filename C:\EAC Rips\06 Currency (feat. Sergey Golovin).wav
Peak level 97.7 % Extraction speed 0.5 X Track quality 99.9 % Test CRC 7D868099 Copy CRC 7D868099 Track not present in AccurateRip database Copy OK
Track 7
Filename C:\EAC Rips\07 Time Shift.wav
Peak level 97.7 % Extraction speed 3.1 X Track quality 100.0 % Test CRC 8B39DB44 Copy CRC 8B39DB44 Track not present in AccurateRip database Copy OK
Track 8
Filename C:\EAC Rips\08 Infinity.wav
Peak level 97.7 % Extraction speed 3.3 X Track quality 100.0 % Test CRC F26EE49E Copy CRC F26EE49E Track not present in AccurateRip database Copy OK
Track 9
Filename C:\EAC Rips\09 Element.wav
Peak level 97.7 % Extraction speed 3.4 X Track quality 100.0 % Test CRC C88222BC Copy CRC C88222BC Track not present in AccurateRip database Copy OK
Track 10
Filename C:\EAC Rips\10 Journey Of Living.wav
Peak level 97.7 % Extraction speed 3.5 X Track quality 100.0 % Test CRC E7257822 Copy CRC E7257822 Track not present in AccurateRip database Copy OK
Track 11
Filename C:\EAC Rips\11 Thaller Than Thall (Outro).wav
Peak level 97.7 % Extraction speed 3.2 X Track quality 100.0 % Test CRC B899A278 Copy CRC B899A278 Track not present in AccurateRip database Copy OK
Track 12
Filename C:\EAC Rips\12 Currency (Vocal Version feat. Maxi Curnow).wav
Pre-gap length 0:00:02.00
Peak level 97.7 % Extraction speed 3.6 X Track quality 100.0 % Test CRC C2F9629E Copy CRC C2F9629E Track not present in AccurateRip database Copy OK
Track 13
Filename C:\EAC Rips\13 Differentiate (Vocal Version feat. Maxi Curnow).wav
Pre-gap length 0:00:02.00
Peak level 97.7 % Extraction speed 3.9 X Track quality 100.0 % Test CRC 4E312CD4 Copy CRC 4E312CD4 Track not present in AccurateRip database Copy OK
Track 14
Filename C:\EAC Rips\14 Infinity (Matt Holland Remix).wav
Pre-gap length 0:00:01.60
Peak level 97.7 % Extraction speed 3.8 X Track quality 100.0 % Test CRC 9B37158C Copy CRC 9B37158C Track not present in AccurateRip database Copy OK
None of the tracks are present in the AccurateRip database
No errors occurred
End of status report
==== Log checksum 6EA6ACE83478533DFB7AFE8358EE71F4D4573A1988DD36107D3E3931177A2315 ====

Содержание индексной карты (.CUE)

REM GENRE "Progressive Metal"REM DATE 2013REM DISCID BF0D6F0EREM COMMENT "ExactAudioCopy v1.0b3"PERFORMER "Modern Day Babylon"TITLE "Travelers"FILE "01 - Astral Storm (Intro).wav" WAVE TRACK 01 AUDIO TITLE "Astral Storm (Intro)" PERFORMER "Modern Day Babylon" FLAGS DCP INDEX 01 00:00:00FILE "02 - Lost In Dreams (feat. Jakub Zytecki).wav" WAVE TRACK 02 AUDIO TITLE "Lost In Dreams (feat. Jakub Zytecki)" PERFORMER "Modern Day Babylon" FLAGS DCP INDEX 01 00:00:00FILE "03 - Travelers.wav" WAVE TRACK 03 AUDIO TITLE "Travelers" PERFORMER "Modern Day Babylon" FLAGS DCP INDEX 01 00:00:00FILE "04 - Distant Skyline (feat. Chris Storey).wav" WAVE TRACK 04 AUDIO TITLE "Distant Skyline (feat. Chris Storey)" PERFORMER "Modern Day Babylon" FLAGS DCP INDEX 01 00:00:00FILE "05 - Differentiate.wav" WAVE TRACK 05 AUDIO TITLE "Differentiate" PERFORMER "Modern Day Babylon" FLAGS DCP INDEX 01 00:00:00FILE "06 - Currency (feat. Sergey Golovin).wav" WAVE TRACK 06 AUDIO TITLE "Currency (feat. Sergey Golovin)" PERFORMER "Modern Day Babylon" FLAGS DCP INDEX 01 00:00:00FILE "07 - Time Shift.wav" WAVE TRACK 07 AUDIO TITLE "Time Shift" PERFORMER "Modern Day Babylon" FLAGS DCP INDEX 01 00:00:00FILE "08 - Infinity.wav" WAVE TRACK 08 AUDIO TITLE "Infinity" PERFORMER "Modern Day Babylon" FLAGS DCP INDEX 01 00:00:00FILE "09 - Element.wav" WAVE TRACK 09 AUDIO TITLE "Element" PERFORMER "Modern Day Babylon" FLAGS DCP INDEX 01 00:00:00FILE "10 - Journey Of Living.wav" WAVE TRACK 10 AUDIO TITLE "Journey Of Living" PERFORMER "Modern Day Babylon" FLAGS DCP INDEX 01 00:00:00FILE "11 - Thaller Than Thall (Outro).wav" WAVE TRACK 11 AUDIO TITLE "Thaller Than Thall (Outro)" PERFORMER "Modern Day Babylon" FLAGS DCP INDEX 01 00:00:00FILE "12 - Currency (Vocal Version feat. Maxi Curnow).wav" WAVE TRACK 12 AUDIO TITLE "Currency (Vocal Version feat. Maxi Curnow)" PERFORMER "Modern Day Babylon" FLAGS DCP INDEX 01 00:00:00FILE "13 - Differentiate (Vocal Version feat. Maxi Curnow).wav" WAVE TRACK 13 AUDIO TITLE "Differentiate (Vocal Version feat. Maxi Curnow)" PERFORMER "Modern Day Babylon" FLAGS DCP INDEX 01 00:00:00FILE "14 - Infinity (Matt Holland Remix).wav" WAVE TRACK 14 AUDIO TITLE "Infinity (Matt Holland Remix)" PERFORMER "Modern Day Babylon" FLAGS DCP INDEX 01 00:00:00

Лог проверки качества

2869847554 27539612 01 Astral Storm (Intro).wav3766567652 42688844 02 Lost In Dreams (feat. Jakub Zytecki).wav3397750025 47275244 03 Travelers.wav200828363 46216844 04 Distant Skyline (feat. Chris Storey).wav1330598819 56182268 05 Differentiate.wav2589052520 36954668 06 Currency (feat. Sergey Golovin).wav3197217943 49166252 07 Time Shift.wav2756535752 55349660 08 Infinity.wav3777363786 47275244 09 Element.wav1700605667 44010668 10 Journey Of Living.wav3388818883 21873644 11 Thaller Than Thall (Outro).wav2498742020 38102444 12 Currency (Vocal Version feat. Maxi Curnow).wav2075227935 57083084 13 Differentiate (Vocal Version feat. Maxi Curnow).wav310341284 37025228 14 Infinity (Matt Holland Remix).wav
auCDtect: CD records authenticity detector, version 0.8.2Copyright (c) 2004 Oleg Berngardt. All rights reserved.Copyright (c) 2004 Alexander Djourik. All rights reserved.------------------------------------------------------------Processing file: [01 Astral Storm (Intro).wav]
------------------------------------------------------------This track looks like CDDA with probability 99%
------------------------------------------------------------Processing file: [02 Lost In Dreams (feat. Jakub Zytecki).wav]
------------------------------------------------------------This track looks like CDDA with probability 100%
------------------------------------------------------------Processing file: [03 Travelers.wav]
------------------------------------------------------------This track looks like CDDA with probability 100%
------------------------------------------------------------Processing file: [04 Distant Skyline (feat. Chris Storey).wav]
------------------------------------------------------------This track looks like CDDA with probability 100%
------------------------------------------------------------Processing file: [05 Differentiate.wav]
------------------------------------------------------------This track looks like CDDA with probability 100%
------------------------------------------------------------Processing file: [06 Currency (feat. Sergey Golovin).wav]
------------------------------------------------------------This track looks like CDDA with probability 100%
------------------------------------------------------------Processing file: [07 Time Shift.wav]
------------------------------------------------------------This track looks like CDDA with probability 100%
------------------------------------------------------------Processing file: [08 Infinity.wav]
------------------------------------------------------------This track looks like CDDA with probability 99%
------------------------------------------------------------Processing file: [09 Element.wav]
------------------------------------------------------------This track looks like CDDA with probability 100%
------------------------------------------------------------Processing file: [10 Journey Of Living.wav]
------------------------------------------------------------This track looks like CDDA with probability 100%
------------------------------------------------------------Processing file: [11 Thaller Than Thall (Outro).wav]
------------------------------------------------------------This track looks like CDDA with probability 100%
------------------------------------------------------------Processing file: [12 Currency (Vocal Version feat. Maxi Curnow).wav]
------------------------------------------------------------This track looks like CDDA with probability 100%
------------------------------------------------------------Processing file: [13 Differentiate (Vocal Version feat. Maxi Curnow).wav]
------------------------------------------------------------This track looks like CDDA with probability 100%
------------------------------------------------------------Processing file: [14 Infinity (Matt Holland Remix).wav]
------------------------------------------------------------This track looks like CDDA with probability 100%
------------------------------------------------------------Final Conclusion:------------------------------------------------------------These tracks looks like CDDA with probability 100%

Состав

- Tomas Raclavsky / Guitars, Keyboards, Production, Programing
- Vojtech Seminsky / Drums
- Premysl Kuncicky / Bass

2015 - The Ocean Atlas (EP) (24:42)

Издатель (лейбл): Not On Label (Modern Day Babylon Self-Released)
Номер по каталогу: none
Источник (релизер): what.cd
01 - Wings (03:23)
02 - Water drops (ft.Plini) (04:21)
03 - Illusion (03:41)
04 - Falls (03:43)
05 - Through the worlds (05:06)
06 - Wings (Matt Holland remix) (04:24)

Лог создания рипа

Exact Audio Copy V1.0 beta 3 from 29. August 2011
EAC extraction logfile from 26. September 2015, 20:56
Modern Day Babylon / The Ocean Atlas
Used drive : hp DVD-RAM GH60L Adapter: 0 ID: 1
Read mode : SecureUtilize accurate stream : YesDefeat audio cache : YesMake use of C2 pointers : No
Read offset correction : 667Overread into Lead-In and Lead-Out : NoFill up missing offset samples with silence : YesDelete leading and trailing silent blocks : NoNull samples used in CRC calculations : YesUsed interface : Native Win32 interface for Win NT & 2000Gap handling : Appended to previous track
Used output format : User Defined EncoderSelected bitrate : 768 kBit/sQuality : HighAdd ID3 tag : NoCommand line compressor : C:\Program Files (x86)\FLAC\flac.exeAdditional command line options : -8 -V -T "ARTIST=%artist%" -T "TITLE=%title%" -T "ALBUM=%albumtitle%" -T "DATE=%year%" -T "TRACKNUMBER=%tracknr%" -T "GENRE=%genre%" -T "COMMENT=%comment%" -T "BAND=%albuminterpret%" -T "ALBUMARTIST=%albuminterpret%" -T "COMPOSER=%composer%" %haslyrics%--tag-from-file=LYRICS="%lyricsfile%"%haslyrics% -T "DISCNUMBER=%cdnumber%" -T "TOTALDISCS=%totalcds%" -T "TOTALTRACKS=%numtracks%" %hascover%--picture="%coverfile%"%hascover% %source% -o %dest%
TOC of the extracted CD
Track | Start | Length | Start sector | End sector --------------------------------------------------------- 1 | 0:00.00 | 3:23.00 | 0 | 15224 2 | 3:23.00 | 4:21.00 | 15225 | 34799 3 | 7:44.00 | 3:41.00 | 34800 | 51374 4 | 11:25.00 | 3:43.20 | 51375 | 68119 5 | 15:08.20 | 5:08.40 | 68120 | 91259 6 | 20:16.60 | 4:24.00 | 91260 | 111059
Track 1
Filename C:\sage RJ\01 Wings.wav
Pre-gap length 0:00:02.00
Peak level 96.3 % Extraction speed 1.8 X Track quality 100.0 % Test CRC 824C9D80 Copy CRC 824C9D80 Track not present in AccurateRip database Copy OK
Track 2
Filename C:\sage RJ\02 Water Drops (Featuring Plini).wav
Peak level 96.3 % Extraction speed 2.1 X Track quality 100.0 % Test CRC A075AC5D Copy CRC A075AC5D Track not present in AccurateRip database Copy OK
Track 3
Filename C:\sage RJ\03 Illusion.wav
Peak level 96.3 % Extraction speed 2.2 X Track quality 100.0 % Test CRC 218591C9 Copy CRC 218591C9 Track not present in AccurateRip database Copy OK
Track 4
Filename C:\sage RJ\04 Falls.wav
Peak level 96.5 % Extraction speed 2.4 X Track quality 100.0 % Test CRC CA6363B2 Copy CRC CA6363B2 Track not present in AccurateRip database Copy OK
Track 5
Filename C:\sage RJ\05 Through The Worlds.wav
Peak level 98.8 % Extraction speed 2.7 X Track quality 100.0 % Test CRC 20F13846 Copy CRC 20F13846 Track not present in AccurateRip database Copy OK
Track 6
Filename C:\sage RJ\06 Wings (Matt Holland Remix).wav
Pre-gap length 0:00:02.00
Peak level 97.7 % Extraction speed 2.8 X Track quality 100.0 % Test CRC EB5C8449 Copy CRC EB5C8449 Track not present in AccurateRip database Copy OK
None of the tracks are present in the AccurateRip database
No errors occurred
End of status report
==== Log checksum 3DB736C31CB0AC2FA98066FB1F7DA2C2BC66939DA2A111AB9D3AE69B6A3C4B7B ====

Содержание индексной карты (.CUE)

REM GENRE "Progressive Metal"REM DATE 2015REM DISCID 4405C806REM COMMENT "ExactAudioCopy v1.0b3"CATALOG 8597152731514PERFORMER "Modern Day Babylon"TITLE "The Ocean Atlas"FILE "01 - Wings.wav" WAVE TRACK 01 AUDIO TITLE "Wings" PERFORMER "Modern Day Babylon" INDEX 01 00:00:00FILE "02 - Water Drops (Featuring Plini).wav" WAVE TRACK 02 AUDIO TITLE "Water Drops (Featuring Plini)" PERFORMER "Modern Day Babylon" INDEX 01 00:00:00FILE "03 - Illusion.wav" WAVE TRACK 03 AUDIO TITLE "Illusion" PERFORMER "Modern Day Babylon" INDEX 01 00:00:00FILE "04 - Falls.wav" WAVE TRACK 04 AUDIO TITLE "Falls" PERFORMER "Modern Day Babylon" INDEX 01 00:00:00FILE "05 - Through The Worlds.wav" WAVE TRACK 05 AUDIO TITLE "Through The Worlds" PERFORMER "Modern Day Babylon" INDEX 01 00:00:00FILE "06 - Wings (Matt Holland Remix).wav" WAVE TRACK 06 AUDIO TITLE "Wings (Matt Holland Remix)" PERFORMER "Modern Day Babylon" INDEX 01 00:00:00

Лог проверки качества

3818785652 35809244 01 Wings.wav3319289591 46040444 02 Water Drops (Featuring Plini).wav275382034 38984444 03 Illusion.wav435115561 39384284 04 Falls.wav3807294748 54425324 05 Through The Worlds.wav1952784548 46569644 06 Wings (Matt Holland Remix).wav
auCDtect: CD records authenticity detector, version 0.8.2Copyright (c) 2004 Oleg Berngardt. All rights reserved.Copyright (c) 2004 Alexander Djourik. All rights reserved.------------------------------------------------------------Processing file: [01 Wings.wav]
------------------------------------------------------------This track looks like CDDA with probability 100%
------------------------------------------------------------Processing file: [02 Water Drops (Featuring Plini).wav]
------------------------------------------------------------This track looks like CDDA with probability 100%
------------------------------------------------------------Processing file: [03 Illusion.wav]
------------------------------------------------------------This track looks like CDDA with probability 100%
------------------------------------------------------------Processing file: [04 Falls.wav]
------------------------------------------------------------This track looks like CDDA with probability 99%
------------------------------------------------------------Processing file: [05 Through The Worlds.wav]
------------------------------------------------------------This track looks like CDDA with probability 100%
------------------------------------------------------------Processing file: [06 Wings (Matt Holland Remix).wav]
------------------------------------------------------------This track looks like CDDA with probability 100%
------------------------------------------------------------Final Conclusion:------------------------------------------------------------These tracks looks like CDDA with probability 100%

Состав

- Tomas Raclavsky / Guitars, Keyboards, Production, Programing
- Vojtech Seminsky / Drums
- Premysl Kuncicky / Bass
Guest:
- Plini (2)

2018 - Coma (WEB) (40:44)

01. Sleeper.wav
02. Dream Cycles.wav
03. Coma.wav
04. Timelapse.wav
05. Otherside.wav
06. Waves.wav
07. Memory.wav
08. Visions.wav
09. Wake Up.wav

Лог проверки качества

1581810193 43442556 01. Sleeper.wav3874340547 41264416 02. Dream Cycles.wav2808394844 48523612 03. Coma.wav3758015158 48436544 04. Timelapse.wav3584582147 40796516 05. Otherside.wav111286803 43412088 06. Waves.wav652506008 43742312 07. Memory.wav1256696117 44706868 08. Visions.wav2836590007 40597580 09. Wake Up.wav
auCDtect: CD records authenticity detector, version 0.8.2Copyright (c) 2004 Oleg Berngardt. All rights reserved.Copyright (c) 2004 Alexander Djourik. All rights reserved.------------------------------------------------------------Processing file: [01. Sleeper.wav]
------------------------------------------------------------This track looks like CDDA with probability 100%
------------------------------------------------------------Processing file: [02. Dream Cycles.wav]
------------------------------------------------------------This track looks like CDDA with probability 99%
------------------------------------------------------------Processing file: [03. Coma.wav]
------------------------------------------------------------This track looks like CDDA with probability 100%
------------------------------------------------------------Processing file: [04. Timelapse.wav]
------------------------------------------------------------This track looks like CDDA with probability 100%
------------------------------------------------------------Processing file: [05. Otherside.wav]
------------------------------------------------------------This track looks like CDDA with probability 100%
------------------------------------------------------------Processing file: [06. Waves.wav]
------------------------------------------------------------This track looks like CDDA with probability 100%
------------------------------------------------------------Processing file: [07. Memory.wav]
------------------------------------------------------------This track looks like CDDA with probability 100%
------------------------------------------------------------Processing file: [08. Visions.wav]
------------------------------------------------------------This track looks like CDDA with probability 100%
------------------------------------------------------------Processing file: [09. Wake Up.wav]
------------------------------------------------------------This track looks like CDDA with probability 100%
------------------------------------------------------------Final Conclusion:------------------------------------------------------------These tracks looks like CDDA with probability 100%
Доп. информация: http://www.moderndaybabylon.net/biography


[islamvillage.com]_t_5086407.torrent
Торрент: Зарегистрирован ·  [ 2018-03-26 03:51 ] ·  a7b70f8544da0ffb932538889afe5df34c3804d1

16 KB

Статус: проверено
Скачан: 0 раз
Размер: 1.07 GB
Оценка: 
(Голосов: 0)
Сказали спасибо: 0  Спасибо
Похожие темы
[Профиль]    [ЛС]
Показать сообщения:    
Ответить на тему

Текущее время: Сегодня 03:49

Часовой пояс: GMT + 7



Вы не можете начинать темы
Вы не можете отвечать на сообщения
Вы не можете редактировать свои сообщения
Вы не можете удалять свои сообщения
Вы не можете голосовать в опросах
Вы не можете прикреплять файлы к сообщениям
Вы можете скачивать файлы


Thám Tử Lừng Danh Conan chap 124 | LECTEUR MP3 MP4 NEW STYLE NEUF ET GARANTI 8 OU 16GO :Vidéo, musique, radio, Jeux | Beste overeenkomst