(Hardcore, Techno, Industrial) [CD] Messiah - 21st Century Jesus (1993), FLAC (image+.cue), lossless

Ответить на тему
Статистика раздачи [Обновить пиров]
Размер:  287 MB   |    Зарегистрирован:  9 месяцев 13 дней   |    Скачан:  0 раз

Полного источника не было: Никогда

 
   
 
 
 
Автор Сообщение

islamvillage.com

Создавать темы 04-Апр-2018 22:45

[Цитировать]

Messiah - 21st Century Jesus
Жанр: Hardcore, Techno, Industrial
Носитель: CD
Страна-производитель диска (релиза): France
Год издания: 1993
Издатель (лейбл): WEA
Номер по каталогу: 4509-94393-2
Аудиокодек: FLAC (*.flac)
Тип рипа: image+.cue
Битрейт аудио: lossless
Продолжительность: 00:42:10
Источник: CD
Наличие сканов: нет
01. The Age Of The Machine
02. Beyond Good And Evil
03. Defiance
04. There Is No Law
05. Temple Of Dreams
06. Creator
07. Peace And Tranquility
08. Thunderdome
09. Destroyer
10. I Feel Love
11. 20,000 Hardcore Members (Programme 2 Remix)
12. Desire

Лог создания рипа

Exact Audio Copy V1.3 from 2. September 2016
Отчёт EAC об извлечении, выполненном 29. марта 2018, 10:40
Messiah / 21st Century Jesus
Дисковод: TSSTcorpCDDVDW SN-208BB Adapter: 1 ID: 1
Режим чтения : ДостоверностьИспользование точного потока : ДаОтключение кэша аудио : ДаИспользование указателей C2 : Нет
Коррекция смещения при чтении : 6Способность читать области Lead-in и Lead-out : НетЗаполнение пропущенных сэмплов тишиной : ДаУдаление блоков с тишиной в начале и конце : НетПри вычислениях CRC использовались нулевые сэмплы : ДаИнтерфейс : Встроенный Win32-интерфейс для Win NT/2000
Выходной формат : Пользовательский кодировщикВыбранный битрейт : 768 kBit/sКачество : ВысокийДобавление ID3-тега : НетУтилита сжатия : C:\Program Files (x86)\Exact Audio Copy\FLAC\FLAC.EXEДополнительные параметры : -6 -V -T "ARTIST=%artist%" -T "TITLE=%title%" -T "ALBUM=%albumtitle%" -T "DATE=%year%" -T "TRACKNUMBER=%tracknr%" -T "GENRE=%genre%" -T "COMMENT=%comment%" -T "BAND=%albuminterpret%" -T "ALBUMARTIST=%albuminterpret%" -T "COMPOSER=%composer%" %haslyrics%--tag-from-file=LYRICS="%lyricsfile%"%haslyrics% -T "DISCNUMBER=%cdnumber%" -T "TOTALDISCS=%totalcds%" -T "TOTALTRACKS=%numtracks%" %hascover%--picture="%coverfile%"%hascover% %source% -o %dest%
TOC извлечённого CD
Трек | Старт | Длительность | Начальный сектор | Конечный сектор --------------------------------------------------------------------- 1 | 0:00.00 | 0:35.15 | 0 | 2639 2 | 0:35.15 | 3:50.07 | 2640 | 19896 3 | 4:25.22 | 0:23.40 | 19897 | 21661 4 | 4:48.62 | 3:39.30 | 21662 | 38116 5 | 8:28.17 | 4:27.45 | 38117 | 58186 6 | 12:55.62 | 3:49.23 | 58187 | 75384 7 | 16:45.10 | 5:45.42 | 75385 | 101301 8 | 22:30.52 | 4:49.20 | 101302 | 122996 9 | 27:19.72 | 2:43.28 | 122997 | 135249 10 | 30:03.25 | 3:49.07 | 135250 | 152431 11 | 33:52.32 | 3:42.25 | 152432 | 169106 12 | 37:34.57 | 4:35.45 | 169107 | 189776
Характеристики диапазона извлечения и сообщения об ошибках
Выбранный диапазон
Имя файла D:\Eac\ru_tracker\Messiah - 21st Century Jesus.wav
Пиковый уровень 100.0 % Скорость извлечения 1.6 X Качество диапазона 99.9 % CRC теста 2BC0E109 CRC копии 2BC0E109 Копирование... OK
Ошибок не произошло
AccurateRip: сводка
Трек 1 : извлечено точно (доверие 7) [0D8B1709] (AR v2)Трек 2 : извлечено точно (доверие 7) [9F7F5F40] (AR v2)Трек 3 : извлечено точно (доверие 7) [77DA717C] (AR v2)Трек 4 : извлечено точно (доверие 7) [70211852] (AR v2)Трек 5 : извлечено точно (доверие 7) [66D91D6C] (AR v2)Трек 6 : извлечено точно (доверие 7) [49FDF69A] (AR v2)Трек 7 : извлечено точно (доверие 7) [D8DF2C12] (AR v2)Трек 8 : извлечено точно (доверие 7) [DBDCD375] (AR v2)Трек 9 : извлечено точно (доверие 7) [4CCB4266] (AR v2)Трек 10 : извлечено точно (доверие 7) [D9FB5F4D] (AR v2)Трек 11 : извлечено точно (доверие 7) [4E84229F] (AR v2)Трек 12 : извлечено точно (доверие 7) [B97E462A] (AR v2)
Все треки извлечены точно
Конец отчёта
---- CUETools DB Plugin V2.1.6
[CTDB TOCID: 56hmZOvt_sgvibZ7d74atkNpAdo-] foundSubmit result: 56hmZOvt_sgvibZ7d74atkNpAdo- has been confirmedTrack | CTDB Status 1 | (17/17) Accurately ripped 2 | (16/17) Accurately ripped 3 | (15/17) Accurately ripped 4 | (16/17) Accurately ripped 5 | (16/17) Accurately ripped 6 | (16/17) Accurately ripped 7 | (16/17) Accurately ripped 8 | (16/17) Accurately ripped 9 | (16/17) Accurately ripped 10 | (15/17) Accurately ripped 11 | (16/17) Accurately ripped 12 | (16/17) Accurately ripped
==== Контрольная сумма отчёта 6806E1F2C02EF672294529004D3F52E90E09853FABDF1AA11C20C119F4FBF3BB ====

Лог проверки качества

AUDIOCHECKER v2.0 beta (build 457) - by Dester - opdester@freemail.hu~~~~~~~~~~~~~~~~~~~~~~~~~~~~~~~~~~-=== DO NOT EDIT THIS FILE! ===-
Path: ...\Messiah - 21st Century Jesus (1993)
1 -=- Messiah - 21st Century Jesus.flac -=- CDDA (100%)
180762036


[islamvillage.com]_t_5543328.torrent
Торрент: Зарегистрирован ·  [ 2018-04-04 22:43 ] ·  e39f473b5b2053f294ff7cc3f4f8fd2cdb5eb58d

12 KB

Статус: проверено
Скачан: 0 раз
Размер: 287 MB
Оценка: 
(Голосов: 0)
Сказали спасибо: 0  Спасибо
Похожие темы
[Профиль]    [ЛС]
Показать сообщения:    
Ответить на тему

Текущее время: Сегодня 03:02

Часовой пояс: GMT + 7



Вы не можете начинать темы
Вы не можете отвечать на сообщения
Вы не можете редактировать свои сообщения
Вы не можете удалять свои сообщения
Вы не можете голосовать в опросах
Вы не можете прикреплять файлы к сообщениям
Вы можете скачивать файлы


Philip Coppens | One Piece 359 | Nữ Hoàng Ai Cập-Ouke no Monshou chap 148