Шолом-Алейхем: Блуждающие звёзды (Нина Михоэлс) [2016, мелодрама, моноспектакль, SATRip-AVC] Центральный дом актера им. А.А. Яблочкиной

Ответить на тему
Статистика раздачи [Обновить пиров]
Размер:  746 MB   |    Зарегистрирован:  9 месяцев 11 дней   |    Скачан:  0 раз

Полного источника не было: Никогда

 
   
 
 
 
Автор Сообщение

islamvillage.com

Создавать темы 07-Апр-2018 23:09

[Цитировать]

Блуждающие звёзды
Шолом-Алейхем- Название театра: Центральный дом актера им. А.А. Яблочкиной
Жанр: мелодрама, моноспектакль
Год выхода: 2016
Продолжительность: 01:16:41
Режиссёр-постановщик: Нина Михоэлс
В ролях: Татьяна Хазановская
Описание: По одноименному роману Шолом-Алейхема (1909-1911). Это роман о любви и судьбе двух молодых людей из бессарабского местечка Голонешты — Рейзл, дочери бедняка-кантора, и Лейбла, cына провинциального богача, которые в тяге к искусству бегут из родных мест со странствующим еврейским театром, чтобы посвятить свою жизнь сцене. После долгой разлуки, преодолевшие нищету и трудный путь сценической самореализации в мире жестокого театрального бизнеса, ставшие знаменитыми певица Роза Спивак и актёр Лео Рафалеско находят друг друга в Америке, но снова расходятся, с грустью понимая, что нет возврата к прошлому, что слишком поздно встретились "блуждающие звёзды… видно нет счастья на земле, есть только стремление к нему, погоня за счастьем".
Доп. информация: Intelsat 15 (85.0°E) Телеканал "Театр" DVB-S

Качество видео: SATRip-AVC
Формат файла: MKV
Видео: AVC (H.264), 720x400 (16:9), 25 fps, ~1197 kbps avg, 0.166 bit/pixel
Аудио: MPEG Audio 2, 2 ch, 48 kHz, 160 kbps

MediaInfo

GeneralUnique ID : 312110911736356691691938760699518681413 (0xEACE6005C9837B927653A1DB48B48145)Complete name : [apreder]Bluzdauschie_zvezdy(2016)SATRip.mkvFormat : MatroskaFormat version : Version 2File size : 746 MiBDuration : 1 h 16 minOverall bit rate : 1 360 kb/sMovie name : Блуждающие звездыReleased date : 2016-00-00Encoded date : UTC 2018-03-31 13:40:29Writing application : mkvmerge v21.0.0 ('Tardigrades Will Inherit The Earth') 64-bitWriting library : libebml v1.3.5 + libmatroska v1.4.8Cover : YesAttachments : cover.png / small_cover.jpgACTOR : Татьяна ХазановскаяDIRECTOR : Нина МихоэлсGENRE : RomanceKEYWORDS : TorrentcLAW_RATING : 12+
VideoID : 1Format : AVCFormat/Info : Advanced Video CodecFormat profile : High@L4.1Format settings : CABAC / 9 Ref FramesFormat settings, CABAC : YesFormat settings, RefFrames : 9 framesCodec ID : V_MPEG4/ISO/AVCDuration : 1 h 16 minBit rate : 1 197 kb/sWidth : 720 pixelsHeight : 400 pixelsDisplay aspect ratio : 16:9Frame rate mode : ConstantFrame rate : 25.000 FPSColor space : YUVChroma subsampling : 4:2:0Bit depth : 8 bitsScan type : ProgressiveBits/(Pixel*Frame) : 0.166Stream size : 643 MiB (86%)Writing library : x264 core 155 r2901 7d0ff22Encoding settings : cabac=1 / ref=9 / deblock=1:-1:-1 / analyse=0x3:0x133 / me=umh / subme=10 / psy=1 / psy_rd=1.00:0.15 / mixed_ref=1 / me_range=24 / chroma_me=1 / trellis=2 / 8x8dct=1 / cqm=0 / deadzone=21,11 / fast_pskip=1 / chroma_qp_offset=-3 / threads=12 / lookahead_threads=3 / sliced_threads=0 / nr=0 / decimate=1 / interlaced=0 / bluray_compat=0 / constrained_intra=0 / bframes=16 / b_pyramid=2 / b_adapt=2 / b_bias=0 / direct=3 / weightb=1 / open_gop=0 / weightp=2 / keyint=250 / keyint_min=25 / scenecut=40 / intra_refresh=0 / rc_lookahead=60 / rc=2pass / mbtree=1 / bitrate=1197 / ratetol=1.0 / qcomp=0.60 / qpmin=0 / qpmax=69 / qpstep=4 / cplxblur=20.0 / qblur=0.5 / vbv_maxrate=62500 / vbv_bufsize=78125 / nal_hrd=none / filler=0 / ip_ratio=1.40 / aq=1:1.00Default : YesForced : No
AudioID : 2Format : MPEG AudioFormat version : Version 1Format profile : Layer 2Codec ID : A_MPEG/L2Codec ID/Hint : MP2Duration : 1 h 16 minBit rate mode : ConstantBit rate : 160 kb/sChannel(s) : 2 channelsSampling rate : 48.0 kHzCompression mode : LossyStream size : 87.8 MiB (12%)Language : RussianDefault : YesForced : No

Скриншот с названием постановки

Скриншоты

Резервные скриншоты

- [4'128]


[islamvillage.com]_t_5542330.torrent
Торрент: Зарегистрирован ·  [ 2018-04-07 23:09 ] ·  b75405c9921477166734d4bcb0c109c5df6192df

8 KB

Статус: проверено
Скачан: 0 раз
Размер: 746 MB
Оценка: 
(Голосов: 0)
Сказали спасибо: 0  Спасибо
Похожие темы
[Профиль]    [ЛС]
Показать сообщения:    
Ответить на тему

Текущее время: Сегодня 09:34

Часовой пояс: GMT + 7



Вы не можете начинать темы
Вы не можете отвечать на сообщения
Вы не можете редактировать свои сообщения
Вы не можете удалять свои сообщения
Вы не можете голосовать в опросах
Вы не можете прикреплять файлы к сообщениям
Вы можете скачивать файлы


Editores de Áudio | leggi ... | Science Medicine (1930-Now)