(Hardcore, Gabber, Happy Hardcore) [CD] VA - Hardcore Madness VI - 2002, FLAC (image+.cue), lossless

Ответить на тему
Статистика раздачи [Обновить пиров]
Размер:  849 MB   |    Зарегистрирован:  8 месяцев 11 дней   |    Скачан:  0 раз

Полного источника не было: Никогда

 
   
 
 
 
Автор Сообщение

islamvillage.com

Создавать темы 06-Май-2018 21:51

[Цитировать]

Hardcore Madness VI
[img=right]http://i103.fastpic.ru/big/2018/0326/76/0b3ffbf4b9...627376.jpg[/img]
Жанр: Hardcore, Gabber, Happy Hardcore
Носитель: CD
Страна-производитель диска: [img]http://upload.wikimedia.org/wikipedia/commons/thum...ia.svg.png[/img] Russia
Год издания: 2002
Издатель (лейбл): GM Records
Номер по каталогу: NG 2458
Аудиокодек: FLAC (*.flac)
Тип рипа: image+.cue
Битрейт аудио: lossless
Продолжительность: 01:05:11
Источник (релизер): MWZR
Наличие сканов в содержимом раздачи: да (1200dpi)
Треклист:
01. Vortex - Body Movin (Hardcore Remix)
02. Real Men (DJ Holod & Ki-Real) - Men At Work
03. Reactor Project - Slam
04. Khumaan - The X Style
05. Deliverance - Cosmic Dream
06. Карантин & Тамара - Космический полет
07. Toxigen - Давай Hardcore! (Импульсы Жесткой Любви)
08. Vortex & Embrion - It's Ecstasy
09. Real Men (DJ Holod & Ki-Real) - Real Sound
10. Deliverance vs. Khumaan - Through Your Travels
11. New Wave Promo - www.newwavepromo.ru
12. Karantin - Goodbye (Just A Remix)
13. Ki-Real - It's So Good It's So Right
14. DJ Holod - Special Drug # Da Predator

Лог извлечения

Exact Audio Copy V1.1 from 23. June 2015
EAC extraction logfile from 16. March 2018, 17:30
VA / Hardcore Madness VI (2002)
Used drive : PIONEER BD-RW BDR-208D Adapter: 1 ID: 0
Read mode : SecureUtilize accurate stream : YesDefeat audio cache : YesMake use of C2 pointers : No
Read offset correction : 667Overread into Lead-In and Lead-Out : NoFill up missing offset samples with silence : YesDelete leading and trailing silent blocks : NoNull samples used in CRC calculations : YesUsed interface : Native Win32 interface for Win NT & 2000
Used output format : User Defined EncoderSelected bitrate : 128 kBit/sQuality : HighAdd ID3 tag : NoCommand line compressor : C:\Program Files (x86)\Exact Audio Copy\Flac\flac.exeAdditional command line options : -V -8 -T "Date=%year%" -T "COMMENT=ripped by: MWZR" -T "Genre=%genre%" %source%
TOC of the extracted CD
Track | Start | Length | Start sector | End sector --------------------------------------------------------- 1 | 0:00.00 | 5:19.62 | 0 | 23986 2 | 5:19.62 | 4:34.62 | 23987 | 44598 3 | 9:54.49 | 3:28.43 | 44599 | 60241 4 | 13:23.17 | 5:44.25 | 60242 | 86066 5 | 19:07.42 | 4:50.11 | 86067 | 107827 6 | 23:57.53 | 4:43.28 | 107828 | 129080 7 | 28:41.06 | 3:56.43 | 129081 | 146823 8 | 32:37.49 | 4:17.28 | 146824 | 166126 9 | 36:55.02 | 4:18.65 | 166127 | 185541 10 | 41:13.67 | 5:07.38 | 185542 | 208604 11 | 46:21.30 | 5:23.63 | 208605 | 232892 12 | 51:45.18 | 4:38.40 | 232893 | 253782 13 | 56:23.58 | 4:31.20 | 253783 | 274127 14 | 60:55.03 | 4:16.03 | 274128 | 293330
Range status and errors
Selected range
Filename C:\[2002] [NG 2458] VA - Hardcore Madness VI\VA - Hardcore Madness VI (2002).wav
Peak level 100.0 % Extraction speed 7.7 X Range quality 100.0 % Test CRC CEE46359 Copy CRC CEE46359 Copy OK
No errors occurred
AccurateRip summary
Track 1 accurately ripped (confidence 2) [CB4C91E5] (AR v2)Track 2 accurately ripped (confidence 2) [4A602787] (AR v2)Track 3 accurately ripped (confidence 2) [F0D4A415] (AR v2)Track 4 accurately ripped (confidence 2) [97305604] (AR v2)Track 5 accurately ripped (confidence 2) [C8304EE7] (AR v2)Track 6 accurately ripped (confidence 2) [5680BFDD] (AR v2)Track 7 accurately ripped (confidence 2) [4EAD18BD] (AR v2)Track 8 accurately ripped (confidence 2) [0B272AF2] (AR v2)Track 9 accurately ripped (confidence 2) [1DCC0D03] (AR v2)Track 10 accurately ripped (confidence 2) [5A54EAEB] (AR v2)Track 11 accurately ripped (confidence 2) [A6EBFF22] (AR v2)Track 12 accurately ripped (confidence 2) [7F516580] (AR v2)Track 13 accurately ripped (confidence 2) [5701C819] (AR v2)Track 14 accurately ripped (confidence 2) [A6B66EB1] (AR v2)
All tracks accurately ripped
End of status report
---- CUETools DB Plugin V2.1.6
[CTDB TOCID: _f0_DqgT7FwnWCk4coBc02aQfDs-] foundSubmit result: _f0_DqgT7FwnWCk4coBc02aQfDs- has been confirmedTrack | CTDB Status 1 | (2/2) Accurately ripped 2 | (2/2) Accurately ripped 3 | (2/2) Accurately ripped 4 | (2/2) Accurately ripped 5 | (2/2) Accurately ripped 6 | (2/2) Accurately ripped 7 | (2/2) Accurately ripped 8 | (2/2) Accurately ripped 9 | (2/2) Accurately ripped 10 | (2/2) Accurately ripped 11 | (2/2) Accurately ripped 12 | (2/2) Accurately ripped 13 | (2/2) Accurately ripped 14 | (2/2) Accurately ripped
==== Log checksum 1A71304E848998FC572228CF316C101AE022610C74F359ACB7A6584B0CC3907A ====

Содержание индексной карты (.CUE)

REM GENRE "Hardcore, Gabber, Happy Hardcore"REM DATE 2002REM DISCID D30F470EREM COMMENT "ripped by: MWZR"PERFORMER "VA"TITLE "Hardcore Madness VI (2002)"FILE "VA - Hardcore Madness VI (2002).flac" WAVE TRACK 01 AUDIO TITLE "Body Movin (Hardcore Remix)" PERFORMER "Vortex" FLAGS DCP INDEX 01 00:00:00 TRACK 02 AUDIO TITLE "Men At Work" PERFORMER "Real Men (DJ Holod & Ki-Real)" FLAGS DCP INDEX 01 05:19:62 TRACK 03 AUDIO TITLE "Slam" PERFORMER "Reactor Project" FLAGS DCP INDEX 01 09:54:49 TRACK 04 AUDIO TITLE "The X Style" PERFORMER "Khumaan" FLAGS DCP INDEX 01 13:23:17 TRACK 05 AUDIO TITLE "Cosmic Dream" PERFORMER "Deliverance" FLAGS DCP INDEX 01 19:07:42 TRACK 06 AUDIO TITLE "Космический Полет" PERFORMER "Карантин & Тамара" FLAGS DCP INDEX 01 23:57:53 TRACK 07 AUDIO TITLE "Давай Hardcore! (Импульсы Жесткой Любви)" PERFORMER "Toxigen" FLAGS DCP INDEX 01 28:41:06 TRACK 08 AUDIO TITLE "It's Ecstasy" PERFORMER "Vortex & Embrion" FLAGS DCP INDEX 01 32:37:49 TRACK 09 AUDIO TITLE "Real Sound" PERFORMER "Real Men (DJ Holod & Ki-Real)" FLAGS DCP INDEX 01 36:55:02 TRACK 10 AUDIO TITLE "Through Your Travels" PERFORMER "Deliverance vs. Khumaan" FLAGS DCP INDEX 01 41:13:67 TRACK 11 AUDIO TITLE "www.newwavepromo.ru" PERFORMER "New Wave Promo" FLAGS DCP INDEX 01 46:21:30 TRACK 12 AUDIO TITLE "Goodbye (Just A Remix)" PERFORMER "Karantin" FLAGS DCP INDEX 01 51:45:18 TRACK 13 AUDIO TITLE "It's So Good It's So Right" PERFORMER "Ki-Real" FLAGS DCP INDEX 01 56:23:58 TRACK 14 AUDIO TITLE "Special Drug # Da Predator" PERFORMER "DJ Holod" FLAGS DCP INDEX 01 60:55:03


[islamvillage.com]_t_5539826.torrent
Торрент: Зарегистрирован ·  [ 2018-05-06 21:49 ] ·  783e122b209e62c9573074c6e53f219fb246ec26

18 KB

Статус: проверено
Скачан: 0 раз
Размер: 849 MB
Оценка: 
(Голосов: 0)
Сказали спасибо: 0  Спасибо
Похожие темы
[Профиль]    [ЛС]
Показать сообщения:    
Ответить на тему

Текущее время: Сегодня 03:13

Часовой пояс: GMT + 7



Вы не можете начинать темы
Вы не можете отвечать на сообщения
Вы не можете редактировать свои сообщения
Вы не можете удалять свои сообщения
Вы не можете голосовать в опросах
Вы не можете прикреплять файлы к сообщениям
Вы можете скачивать файлы


Porsche 911 targa 1976 | Watch movie | Runderneuert Winterreifen 205/55 R16 91H RE King Meiler WT 81