(Hardcore, Techno, Jungle) [CD] VA - Moondance - True Rave Anthems - 2005, FLAC (tracks), lossless

Ответить на тему
Статистика раздачи [Обновить пиров]
Размер:  1.08 GB   |    Зарегистрирован:  8 месяцев 4 дня   |    Скачан:  0 раз

Полного источника не было: Никогда

Личеров:  1  [  0 KB/s  ]   Подробная статистика скачивающих
 
   
 
 
 
Автор Сообщение

islamvillage.com

Создавать темы 13-Май-2018 20:23

[Цитировать]

VA - Moondance - True Rave Anthems (2005)
Жанр: Hardcore, Techno, Jungle, Oldschool
Носитель: CD
Страна-производитель диска (релиза): United Kingdom
Год издания: 2005
Издатель (лейбл): Ratio
Номер по каталогу: MDCD001
Формат файла: Compilation, mixed
Аудиокодек: FLAC (*.flac)
Тип рипа: tracks
Битрейт аудио: lossless
Продолжительность: 02:29:16
Источник (релизер): web
Наличие сканов в содержимом раздачи: да
Треклист:
CD 1 (01:12:36)
01 Xpansions - Move Your Body (Elevation) (Club Mix)
02 Debbie Malone - Rescue Me
03 Psychotropic - Hypnosis
04 Bug Kann & The Plastic Jam - Made In 2 Minutes
05 The Blapps Posse - Don't Hold Back
06 Shut Up & Dance - £20 To Get In
07 Congress - 40 Miles (Instrumental)
08 True Faith - Take Me Away (Pin-Up Bootleg Mix)
09 Shades Of Rhythm - Homicide
10 Lennie De Ice - We Are I.E
11 Rhythm Section - Circuit Breaker
12 DJ Reckless - Reckless Karnage
13 Altern 8 - Activ 8 (Come With Me)
14 MI 7 - Rockin' Down The House
15 2 Bad Mice - 2 Bad Mice (Remix)
16 SL2 - The Noise (Remix)
17 Altern 8 - Infiltrate 202
18 Bass Construction - Dance With Power
19 Zero B - Lock Up
20 Bizarre Inc - Playing With Knives
21 Rhythm Quest - Closer To All Your Dreams (Hibrid Mix)
22 Manix - Feel Real Good
23 Rachel Wallace - Tell Me Why (M & M Full Vocal Mix)
CD 2 (01:16:40):
01 SL2 - Way In My Brain
02 Ratpack - Brothers Sisters
03 Urban Shakedown - Some Justice
04 Urban Hype - A Trip To Trumpton (The Trumpton Remix)
05 Sound Corp - Dreamfinder
06 MC Jay J & Devious D - Time Of Our Lives
07 Origination - Break Down
08 Phuture Assassins - Future Sound (2 Bad Mice Remix)
09 Krome & Time - This Sound Is For The Underground (Remix)
10 Nookie - Give A Little Love
11 The Prodigy - Your Love (Album Remix)
12 Dance Conspiracy - Dub War (Chapter One)
13 Nookie - Gonna Be Alright (Cloud 9 Remix)
14 Krome & Time - The Slammer
15 DJ Slam - Looking Into The Light
16 The Moog - Jungle Muffin
17 DJ Solo - Darkage
18 Omni Trio - Renegade Snares (Foul Play Remix)
19 Shades Of Rhythm - Sweet Sensation (Ray Keith VIP Mix)
20 Q Project - Champion Sound (Alliance Remix)
21 Slipmatt - Hear Me
22 Origin Unknown - Valley Of The Shadows
23 Slipmatt - Breaking Free

Лог создания рипа

CD 1

Exact Audio Copy V1.1 from 23. June 2015
EAC extraction logfile from 27. October 2016, 11:32
Various / Moon Dance - True Rave Anthems - CD1
Used drive : HL-DT-STDVDRAM GSA-E40N Adapter: 1 ID: 1
Read mode : Secure
Utilize accurate stream : Yes
Defeat audio cache : No
Make use of C2 pointers : Yes
Read offset correction : 667
Overread into Lead-In and Lead-Out : No
Fill up missing offset samples with silence : Yes
Delete leading and trailing silent blocks : No
Null samples used in CRC calculations : Yes
Used interface : Native Win32 interface for Win NT & 2000
Gap handling : Not detected, thus appended to previous track
Used output format : User Defined Encoder
Selected bitrate : 768 kBit/s
Quality : High
Add ID3 tag : No
Command line compressor : C:\Program Files (x86)\Exact Audio Copy\FLAC\FLAC.EXE
Additional command line options : -6 -V -T "ARTIST=%artist%" -T "TITLE=%title%" -T "ALBUM=%albumtitle%" -T "DATE=%year%" -T "TRACKNUMBER=%tracknr%" -T "GENRE=%genre%" -T "COMMENT=%comment%" -T "BAND=%albuminterpret%" -T "ALBUMARTIST=%albuminterpret%" -T "COMPOSER=%composer%" %haslyrics%--tag-from-file=LYRICS="%lyricsfile%"%haslyrics% -T "DISCNUMBER=%cdnumber%" -T "TOTALDISCS=%totalcds%" -T "TOTALTRACKS=%numtracks%" %hascover%--picture="%coverfile%"%hascover% %source% -o %dest%
TOC of the extracted CD
Track | Start | Length | Start sector | End sector
---------------------------------------------------------
1 | 0:00.00 | 4:06.23 | 0 | 18472
2 | 4:06.23 | 2:44.52 | 18473 | 30824
3 | 6:51.00 | 3:29.62 | 30825 | 46561
4 | 10:20.62 | 3:52.38 | 46562 | 63999
5 | 14:13.25 | 2:14.57 | 64000 | 74106
6 | 16:28.07 | 2:22.26 | 74107 | 84782
7 | 18:50.33 | 3:29.56 | 84783 | 100513
8 | 22:20.14 | 3:20.64 | 100514 | 115577
9 | 25:41.03 | 1:58.04 | 115578 | 124431
10 | 27:39.07 | 2:34.02 | 124432 | 135983
11 | 30:13.09 | 2:35.32 | 135984 | 147640
12 | 32:48.41 | 2:14.62 | 147641 | 157752
13 | 35:03.28 | 3:09.03 | 157753 | 171930
14 | 38:12.31 | 2:39.25 | 171931 | 183880
15 | 40:51.56 | 3:09.20 | 183881 | 198075
16 | 44:01.01 | 3:06.27 | 198076 | 212052
17 | 47:07.28 | 3:26.64 | 212053 | 227566
18 | 50:34.17 | 3:19.19 | 227567 | 242510
19 | 53:53.36 | 3:59.74 | 242511 | 260509
20 | 57:53.35 | 3:26.73 | 260510 | 276032
21 | 61:20.33 | 3:17.29 | 276033 | 290836
22 | 64:37.62 | 4:05.36 | 290837 | 309247
23 | 68:43.23 | 3:52.25 | 309248 | 326672
Track 1
Filename F:\FLAC MUSIC\DANCE CLUB HOUSE\MOON DANCE\Moon Dance - True Rave Anthems\MD-TRA - Disc - 01\01.Xpansions - Move Your Body [Evevation].wav
Peak level 99.9 %
Extraction speed 13.4 X
Track quality 99.9 %
Copy CRC D6C8CC1D
Accurately ripped (confidence 2) [7950EE9B] (AR v1)
Copy OK
Track 2
Filename F:\FLAC MUSIC\DANCE CLUB HOUSE\MOON DANCE\Moon Dance - True Rave Anthems\MD-TRA - Disc - 01\02.Debbie Malone - Rescue Me.wav
Peak level 99.9 %
Extraction speed 16.2 X
Track quality 100.0 %
Copy CRC 74121CB1
Accurately ripped (confidence 2) [EDDF3F79] (AR v1)
Copy OK
Track 3
Filename F:\FLAC MUSIC\DANCE CLUB HOUSE\MOON DANCE\Moon Dance - True Rave Anthems\MD-TRA - Disc - 01\03.Psychotropic - Hypnosis.wav
Peak level 99.9 %
Extraction speed 20.9 X
Track quality 100.0 %
Copy CRC FA09457F
Accurately ripped (confidence 2) [DCF98706] (AR v1)
Copy OK
Track 4
Filename F:\FLAC MUSIC\DANCE CLUB HOUSE\MOON DANCE\Moon Dance - True Rave Anthems\MD-TRA - Disc - 01\04.Bug Kann & The Plastic Jam - Made In 2 Mins.wav
Peak level 99.9 %
Extraction speed 20.5 X
Track quality 100.0 %
Copy CRC 92267D5D
Accurately ripped (confidence 2) [D2BE0519] (AR v1)
Copy OK
Track 5
Filename F:\FLAC MUSIC\DANCE CLUB HOUSE\MOON DANCE\Moon Dance - True Rave Anthems\MD-TRA - Disc - 01\05.Blapps Posse - Don't Hold Back.wav
Peak level 99.9 %
Extraction speed 17.4 X
Track quality 99.8 %
Copy CRC FE32685B
Accurately ripped (confidence 2) [1F6865F2] (AR v1)
Copy OK
Track 6
Filename F:\FLAC MUSIC\DANCE CLUB HOUSE\MOON DANCE\Moon Dance - True Rave Anthems\MD-TRA - Disc - 01\06.Shut Up And Dance - £20 To Get In.wav
Peak level 99.9 %
Extraction speed 19.9 X
Track quality 100.0 %
Copy CRC A7CD3584
Accurately ripped (confidence 2) [0EAF766C] (AR v1)
Copy OK
Track 7
Filename F:\FLAC MUSIC\DANCE CLUB HOUSE\MOON DANCE\Moon Dance - True Rave Anthems\MD-TRA - Disc - 01\07.Congress - 40 Miles [Instrumental].wav
Peak level 99.9 %
Extraction speed 24.6 X
Track quality 100.0 %
Copy CRC 68FA38EF
Accurately ripped (confidence 2) [C54833E2] (AR v1)
Copy OK
Track 8
Filename F:\FLAC MUSIC\DANCE CLUB HOUSE\MOON DANCE\Moon Dance - True Rave Anthems\MD-TRA - Disc - 01\08.True Faith - Take Me Away.wav
Peak level 99.9 %
Extraction speed 26.4 X
Track quality 100.0 %
Copy CRC A468DA22
Accurately ripped (confidence 2) [A3EF188D] (AR v1)
Copy OK
Track 9
Filename F:\FLAC MUSIC\DANCE CLUB HOUSE\MOON DANCE\Moon Dance - True Rave Anthems\MD-TRA - Disc - 01\09.Shades Of Rhythm - Homicide.wav
Peak level 99.9 %
Extraction speed 22.1 X
Track quality 100.0 %
Copy CRC E1032E40
Accurately ripped (confidence 2) [76AB84F1] (AR v1)
Copy OK
Track 10
Filename F:\FLAC MUSIC\DANCE CLUB HOUSE\MOON DANCE\Moon Dance - True Rave Anthems\MD-TRA - Disc - 01\10.Lennie De Ice - We Are I.E..wav
Peak level 99.9 %
Extraction speed 27.8 X
Track quality 100.0 %
Copy CRC 791CE163
Accurately ripped (confidence 2) [ECD4743D] (AR v1)
Copy OK
Track 11
Filename F:\FLAC MUSIC\DANCE CLUB HOUSE\MOON DANCE\Moon Dance - True Rave Anthems\MD-TRA - Disc - 01\11.Circuit Breaker - Rhythm Section.wav
Peak level 99.9 %
Extraction speed 24.0 X
Track quality 100.0 %
Copy CRC 81F5C48D
Accurately ripped (confidence 2) [94689A7C] (AR v1)
Copy OK
Track 12
Filename F:\FLAC MUSIC\DANCE CLUB HOUSE\MOON DANCE\Moon Dance - True Rave Anthems\MD-TRA - Disc - 01\12.DJ Reckless - Reckless Carnage.wav
Peak level 99.9 %
Extraction speed 29.2 X
Track quality 100.0 %
Copy CRC 56623224
Accurately ripped (confidence 2) [DB3AC98A] (AR v1)
Copy OK
Track 13
Filename F:\FLAC MUSIC\DANCE CLUB HOUSE\MOON DANCE\Moon Dance - True Rave Anthems\MD-TRA - Disc - 01\13.Altern-8 - Activ-8 [Come With Me].wav
Peak level 99.9 %
Extraction speed 30.2 X
Track quality 100.0 %
Copy CRC 4247F05E
Accurately ripped (confidence 2) [3DBD5C54] (AR v1)
Copy OK
Track 14
Filename F:\FLAC MUSIC\DANCE CLUB HOUSE\MOON DANCE\Moon Dance - True Rave Anthems\MD-TRA - Disc - 01\14.M17 - Rockin' Down The House.wav
Peak level 99.9 %
Extraction speed 24.2 X
Track quality 99.8 %
Copy CRC CD9D3B1B
Accurately ripped (confidence 2) [AD744CD9] (AR v1)
Copy OK
Track 15
Filename F:\FLAC MUSIC\DANCE CLUB HOUSE\MOON DANCE\Moon Dance - True Rave Anthems\MD-TRA - Disc - 01\15.2 Bad Mice - 2 Bad Mice.wav
Peak level 99.9 %
Extraction speed 24.5 X
Track quality 99.8 %
Copy CRC 1CD7A41C
Accurately ripped (confidence 2) [C1AB6E08] (AR v1)
Copy OK
Track 16
Filename F:\FLAC MUSIC\DANCE CLUB HOUSE\MOON DANCE\Moon Dance - True Rave Anthems\MD-TRA - Disc - 01\16.SL2 - The Noise [Remix].wav
Peak level 99.9 %
Extraction speed 27.3 X
Track quality 100.0 %
Copy CRC 21D4127B
Accurately ripped (confidence 2) [8B3C1DC8] (AR v1)
Copy OK
Track 17
Filename F:\FLAC MUSIC\DANCE CLUB HOUSE\MOON DANCE\Moon Dance - True Rave Anthems\MD-TRA - Disc - 01\17.Altern8 - Infaltrate.wav
Peak level 99.9 %
Extraction speed 32.3 X
Track quality 100.0 %
Copy CRC DAA452F3
Accurately ripped (confidence 2) [5B7A8D6E] (AR v1)
Copy OK
Track 18
Filename F:\FLAC MUSIC\DANCE CLUB HOUSE\MOON DANCE\Moon Dance - True Rave Anthems\MD-TRA - Disc - 01\18.Bass Construction - Dance With Power.wav
Peak level 99.9 %
Extraction speed 33.8 X
Track quality 100.0 %
Copy CRC 3944F732
Accurately ripped (confidence 2) [B9EC26E2] (AR v1)
Copy OK
Track 19
Filename F:\FLAC MUSIC\DANCE CLUB HOUSE\MOON DANCE\Moon Dance - True Rave Anthems\MD-TRA - Disc - 01\19.Zero B - Lock Up.wav
Peak level 99.9 %
Extraction speed 34.6 X
Track quality 100.0 %
Copy CRC 3F9FC3ED
Accurately ripped (confidence 2) [8AE6C0B2] (AR v1)
Copy OK
Track 20
Filename F:\FLAC MUSIC\DANCE CLUB HOUSE\MOON DANCE\Moon Dance - True Rave Anthems\MD-TRA - Disc - 01\20.Bizzare Inc - Playing With Knives.wav
Peak level 99.9 %
Extraction speed 30.4 X
Track quality 100.0 %
Copy CRC 794CC47F
Accurately ripped (confidence 2) [02714A96] (AR v1)
Copy OK
Track 21
Filename F:\FLAC MUSIC\DANCE CLUB HOUSE\MOON DANCE\Moon Dance - True Rave Anthems\MD-TRA - Disc - 01\21.Rhythm Quest - Closer To All Your Dreams.wav
Peak level 99.9 %
Extraction speed 36.3 X
Track quality 100.0 %
Copy CRC CEABF7BF
Accurately ripped (confidence 2) [0D617F3D] (AR v1)
Copy OK
Track 22
Filename F:\FLAC MUSIC\DANCE CLUB HOUSE\MOON DANCE\Moon Dance - True Rave Anthems\MD-TRA - Disc - 01\22.Manix - Feel Real Good.wav
Peak level 99.9 %
Extraction speed 34.1 X
Track quality 100.0 %
Copy CRC A40E977C
Accurately ripped (confidence 2) [59B7FE4F] (AR v1)
Copy OK
Track 23
Filename F:\FLAC MUSIC\DANCE CLUB HOUSE\MOON DANCE\Moon Dance - True Rave Anthems\MD-TRA - Disc - 01\23.Rachel Wallace - Tell Me Why.wav
Peak level 99.9 %
Extraction speed 36.5 X
Track quality 99.9 %
Copy CRC FEF16A7E
Accurately ripped (confidence 2) [BE7E7BBA] (AR v1)
Copy OK
All tracks accurately ripped
No errors occurred
End of status report
---- CUETools DB Plugin V2.1.6
[CTDB TOCID: vDqRAZjUeDk30l11gv4Ndo3Jpd0-] found
Submit result: vDqRAZjUeDk30l11gv4Ndo3Jpd0- has been confirmed
Track | CTDB Status
1 | (1/1) Accurately ripped
2 | (1/1) Accurately ripped
3 | (1/1) Accurately ripped
4 | (1/1) Accurately ripped
5 | (1/1) Accurately ripped
6 | (1/1) Accurately ripped
7 | (1/1) Accurately ripped
8 | (1/1) Accurately ripped
9 | (1/1) Accurately ripped
10 | (1/1) Accurately ripped
11 | (1/1) Accurately ripped
12 | (1/1) Accurately ripped
13 | (1/1) Accurately ripped
14 | (1/1) Accurately ripped
15 | (1/1) Accurately ripped
16 | (1/1) Accurately ripped
17 | (1/1) Accurately ripped
18 | (1/1) Accurately ripped
19 | (1/1) Accurately ripped
20 | (1/1) Accurately ripped
21 | (1/1) Accurately ripped
22 | (1/1) Accurately ripped
23 | (1/1) Accurately ripped

CD 2

Exact Audio Copy V1.1 from 23. June 2015
EAC extraction logfile from 27. October 2016, 12:11
Various / Moon Dance - True Rave Anthems - CD2
Used drive : HL-DT-STDVDRAM GSA-E40N Adapter: 1 ID: 1
Read mode : Secure
Utilize accurate stream : Yes
Defeat audio cache : No
Make use of C2 pointers : Yes
Read offset correction : 667
Overread into Lead-In and Lead-Out : No
Fill up missing offset samples with silence : Yes
Delete leading and trailing silent blocks : No
Null samples used in CRC calculations : Yes
Used interface : Native Win32 interface for Win NT & 2000
Gap handling : Not detected, thus appended to previous track
Used output format : User Defined Encoder
Selected bitrate : 768 kBit/s
Quality : High
Add ID3 tag : No
Command line compressor : C:\Program Files (x86)\Exact Audio Copy\FLAC\FLAC.EXE
Additional command line options : -6 -V -T "ARTIST=%artist%" -T "TITLE=%title%" -T "ALBUM=%albumtitle%" -T "DATE=%year%" -T "TRACKNUMBER=%tracknr%" -T "GENRE=%genre%" -T "COMMENT=%comment%" -T "BAND=%albuminterpret%" -T "ALBUMARTIST=%albuminterpret%" -T "COMPOSER=%composer%" %haslyrics%--tag-from-file=LYRICS="%lyricsfile%"%haslyrics% -T "DISCNUMBER=%cdnumber%" -T "TOTALDISCS=%totalcds%" -T "TOTALTRACKS=%numtracks%" %hascover%--picture="%coverfile%"%hascover% %source% -o %dest%
TOC of the extracted CD
Track | Start | Length | Start sector | End sector
---------------------------------------------------------
1 | 0:00.00 | 2:44.26 | 0 | 12325
2 | 2:44.26 | 3:19.53 | 12326 | 27303
3 | 6:04.04 | 3:01.44 | 27304 | 40922
4 | 9:05.48 | 2:41.40 | 40923 | 53037
5 | 11:47.13 | 3:00.15 | 53038 | 66552
6 | 14:47.28 | 3:25.16 | 66553 | 81943
7 | 18:12.44 | 3:20.00 | 81944 | 96943
8 | 21:32.44 | 3:16.14 | 96944 | 111657
9 | 24:48.58 | 3:38.27 | 111658 | 128034
10 | 28:27.10 | 2:45.67 | 128035 | 140476
11 | 31:13.02 | 4:37.27 | 140477 | 161278
12 | 35:50.29 | 3:30.41 | 161279 | 177069
13 | 39:20.70 | 3:05.56 | 177070 | 191000
14 | 42:26.51 | 4:21.52 | 191001 | 210627
15 | 46:48.28 | 2:30.18 | 210628 | 221895
16 | 49:18.46 | 3:38.51 | 221896 | 238296
17 | 52:57.22 | 3:43.74 | 238297 | 255095
18 | 56:41.21 | 4:14.10 | 255096 | 274155
19 | 60:55.31 | 3:19.55 | 274156 | 289135
20 | 64:15.11 | 2:57.26 | 289136 | 302436
21 | 67:12.37 | 2:46.56 | 302437 | 314942
22 | 69:59.18 | 2:57.10 | 314943 | 328227
23 | 72:56.28 | 3:43.30 | 328228 | 344982
Track 1
Filename F:\FLAC MUSIC\DANCE CLUB HOUSE\MOON DANCE\Moon Dance - True Rave Anthems\MD-TRA - Disc - 02\01.SL2 - Way In My Brain.wav
Peak level 100.0 %
Extraction speed 13.7 X
Track quality 99.8 %
Copy CRC BD8A069B
Accurately ripped (confidence 2) [9E9203B9] (AR v1)
Copy OK
Track 2
Filename F:\FLAC MUSIC\DANCE CLUB HOUSE\MOON DANCE\Moon Dance - True Rave Anthems\MD-TRA - Disc - 02\02.Rat Pack - Brother Sister.wav
Peak level 100.0 %
Extraction speed 17.5 X
Track quality 100.0 %
Copy CRC 415989F7
Accurately ripped (confidence 2) [A78BC371] (AR v1)
Copy OK
Track 3
Filename F:\FLAC MUSIC\DANCE CLUB HOUSE\MOON DANCE\Moon Dance - True Rave Anthems\MD-TRA - Disc - 02\03.Urban Shakedown - Some Justice.wav
Peak level 100.0 %
Extraction speed 16.3 X
Track quality 100.0 %
Copy CRC D401333F
Accurately ripped (confidence 2) [E455555E] (AR v1)
Copy OK
Track 4
Filename F:\FLAC MUSIC\DANCE CLUB HOUSE\MOON DANCE\Moon Dance - True Rave Anthems\MD-TRA - Disc - 02\04.Urban Hype - The Trumpton Remix [I Feel The Heat].wav
Peak level 96.6 %
Extraction speed 17.8 X
Track quality 99.8 %
Copy CRC BD83691F
Accurately ripped (confidence 2) [05CC2E78] (AR v1)
Copy OK
Track 5
Filename F:\FLAC MUSIC\DANCE CLUB HOUSE\MOON DANCE\Moon Dance - True Rave Anthems\MD-TRA - Disc - 02\05.Sound Corp - Dreamfinder.wav
Peak level 96.6 %
Extraction speed 19.7 X
Track quality 100.0 %
Copy CRC 244958BC
Accurately ripped (confidence 2) [727F7540] (AR v1)
Copy OK
Track 6
Filename F:\FLAC MUSIC\DANCE CLUB HOUSE\MOON DANCE\Moon Dance - True Rave Anthems\MD-TRA - Disc - 02\06.Jay J & Devious D - Time Of Our Lifes.wav
Peak level 100.0 %
Extraction speed 20.2 X
Track quality 99.8 %
Copy CRC EB10EF3A
Accurately ripped (confidence 2) [0F2F82BF] (AR v1)
Copy OK
Track 7
Filename F:\FLAC MUSIC\DANCE CLUB HOUSE\MOON DANCE\Moon Dance - True Rave Anthems\MD-TRA - Disc - 02\07.Origination - Breakdown [Shine On].wav
Peak level 100.0 %
Extraction speed 22.1 X
Track quality 100.0 %
Copy CRC 46721A66
Accurately ripped (confidence 2) [5EB94946] (AR v1)
Copy OK
Track 8
Filename F:\FLAC MUSIC\DANCE CLUB HOUSE\MOON DANCE\Moon Dance - True Rave Anthems\MD-TRA - Disc - 02\08.Phuture Assassins - Phuture Sound.wav
Peak level 100.0 %
Extraction speed 22.2 X
Track quality 100.0 %
Copy CRC 046C38AC
Accurately ripped (confidence 2) [DB51F285] (AR v1)
Copy OK
Track 9
Filename F:\FLAC MUSIC\DANCE CLUB HOUSE\MOON DANCE\Moon Dance - True Rave Anthems\MD-TRA - Disc - 02\09.Krome & Time - This Sound Is For The Underground.wav
Peak level 100.0 %
Extraction speed 27.3 X
Track quality 100.0 %
Copy CRC 42BF4C78
Accurately ripped (confidence 2) [07C119B3] (AR v1)
Copy OK
Track 10
Filename F:\FLAC MUSIC\DANCE CLUB HOUSE\MOON DANCE\Moon Dance - True Rave Anthems\MD-TRA - Disc - 02\10.Nookie - Give A Little Love.wav
Peak level 100.0 %
Extraction speed 23.8 X
Track quality 100.0 %
Copy CRC C11249F4
Accurately ripped (confidence 2) [623CFC2A] (AR v1)
Copy OK
Track 11
Filename F:\FLAC MUSIC\DANCE CLUB HOUSE\MOON DANCE\Moon Dance - True Rave Anthems\MD-TRA - Disc - 02\11.Prodigy - Your Love.wav
Peak level 100.0 %
Extraction speed 29.3 X
Track quality 100.0 %
Copy CRC 554FD9AF
Accurately ripped (confidence 2) [D081CE34] (AR v1)
Copy OK
Track 12
Filename F:\FLAC MUSIC\DANCE CLUB HOUSE\MOON DANCE\Moon Dance - True Rave Anthems\MD-TRA - Disc - 02\12.Dance Conspiracy - Dub Wars.wav
Peak level 100.0 %
Extraction speed 27.0 X
Track quality 100.0 %
Copy CRC C9CB4BF1
Accurately ripped (confidence 2) [E03EB3B8] (AR v1)
Copy OK
Track 13
Filename F:\FLAC MUSIC\DANCE CLUB HOUSE\MOON DANCE\Moon Dance - True Rave Anthems\MD-TRA - Disc - 02\13.Nookie - The Sound Of Music.wav
Peak level 100.0 %
Extraction speed 25.2 X
Track quality 99.8 %
Copy CRC 26C80E0B
Accurately ripped (confidence 2) [8A383549] (AR v1)
Copy OK
Track 14
Filename F:\FLAC MUSIC\DANCE CLUB HOUSE\MOON DANCE\Moon Dance - True Rave Anthems\MD-TRA - Disc - 02\14.Krome & Time - The Slammer.wav
Peak level 100.0 %
Extraction speed 30.8 X
Track quality 100.0 %
Copy CRC C4948439
Accurately ripped (confidence 2) [D4F92904] (AR v1)
Copy OK
Track 15
Filename F:\FLAC MUSIC\DANCE CLUB HOUSE\MOON DANCE\Moon Dance - True Rave Anthems\MD-TRA - Disc - 02\15.DJ Slam - Looking Into The Light.wav
Peak level 100.0 %
Extraction speed 26.5 X
Track quality 100.0 %
Copy CRC B26E37A4
Accurately ripped (confidence 2) [2B6678ED] (AR v1)
Copy OK
Track 16
Filename F:\FLAC MUSIC\DANCE CLUB HOUSE\MOON DANCE\Moon Dance - True Rave Anthems\MD-TRA - Disc - 02\16.The Moog - Jungle Muffin.wav
Peak level 100.0 %
Extraction speed 32.3 X
Track quality 100.0 %
Copy CRC A80E302A
Accurately ripped (confidence 2) [859C1CD2] (AR v1)
Copy OK
Track 17
Filename F:\FLAC MUSIC\DANCE CLUB HOUSE\MOON DANCE\Moon Dance - True Rave Anthems\MD-TRA - Disc - 02\17.DJ Solo - Darkage.wav
Peak level 100.0 %
Extraction speed 28.1 X
Track quality 99.9 %
Copy CRC E76E920B
Accurately ripped (confidence 2) [418AACD7] (AR v1)
Copy OK
Track 18
Filename F:\FLAC MUSIC\DANCE CLUB HOUSE\MOON DANCE\Moon Dance - True Rave Anthems\MD-TRA - Disc - 02\18.Omni Trio - Renegade Snares [Foul Play Remix].wav
Peak level 100.0 %
Extraction speed 31.0 X
Track quality 100.0 %
Copy CRC FBC82A5E
Accurately ripped (confidence 2) [20732CFD] (AR v1)
Copy OK
Track 19
Filename F:\FLAC MUSIC\DANCE CLUB HOUSE\MOON DANCE\Moon Dance - True Rave Anthems\MD-TRA - Disc - 02\19.Shades Of Rhythm - Sweet Sensation [Ray Keith VIP Mix].wav
Peak level 100.0 %
Extraction speed 30.2 X
Track quality 100.0 %
Copy CRC 0A384A5C
Accurately ripped (confidence 2) [754B6993] (AR v1)
Copy OK
Track 20
Filename F:\FLAC MUSIC\DANCE CLUB HOUSE\MOON DANCE\Moon Dance - True Rave Anthems\MD-TRA - Disc - 02\20.Q Project - Champion Sound [Alliance Remix].wav
Peak level 100.0 %
Extraction speed 29.9 X
Track quality 100.0 %
Copy CRC 04B8A411
Accurately ripped (confidence 2) [ED7EBEF0] (AR v1)
Copy OK
Track 21
Filename F:\FLAC MUSIC\DANCE CLUB HOUSE\MOON DANCE\Moon Dance - True Rave Anthems\MD-TRA - Disc - 02\21.Slipmatt - Hear Me.wav
Peak level 100.0 %
Extraction speed 36.2 X
Track quality 100.0 %
Copy CRC 213FCDF0
Accurately ripped (confidence 2) [374775D7] (AR v1)
Copy OK
Track 22
Filename F:\FLAC MUSIC\DANCE CLUB HOUSE\MOON DANCE\Moon Dance - True Rave Anthems\MD-TRA - Disc - 02\22.Origin Unknown - Valley Of The Shadows.wav
Peak level 100.0 %
Extraction speed 32.2 X
Track quality 100.0 %
Copy CRC 29CBFC6E
Accurately ripped (confidence 2) [E3A50359] (AR v1)
Copy OK
Track 23
Filename F:\FLAC MUSIC\DANCE CLUB HOUSE\MOON DANCE\Moon Dance - True Rave Anthems\MD-TRA - Disc - 02\23.Slipmatt - Breaking Free.wav
Peak level 100.0 %
Extraction speed 35.7 X
Track quality 99.9 %
Copy CRC B5857C85
Accurately ripped (confidence 2) [7DE308A9] (AR v1)
Copy OK
All tracks accurately ripped
No errors occurred
End of status report
---- CUETools DB Plugin V2.1.6
[CTDB TOCID: JU5uk.sRGIVHx70Bkbp1ZlacF_A-] found
Submit result: JU5uk.sRGIVHx70Bkbp1ZlacF_A- has been confirmed
Track | CTDB Status
1 | (1/1) Accurately ripped
2 | (1/1) Accurately ripped
3 | (1/1) Accurately ripped
4 | (1/1) Accurately ripped
5 | (1/1) Accurately ripped
6 | (1/1) Accurately ripped
7 | (1/1) Accurately ripped
8 | (1/1) Accurately ripped
9 | (1/1) Accurately ripped
10 | (1/1) Accurately ripped
11 | (1/1) Accurately ripped
12 | (1/1) Accurately ripped
13 | (1/1) Accurately ripped
14 | (1/1) Accurately ripped
15 | (1/1) Accurately ripped
16 | (1/1) Accurately ripped
17 | (1/1) Accurately ripped
18 | (1/1) Accurately ripped
19 | (1/1) Accurately ripped
20 | (1/1) Accurately ripped
21 | (1/1) Accurately ripped
22 | (1/1) Accurately ripped
23 | (1/1) Accurately ripped

Лог проверки качества

CD 1

AUDIOCHECKER v2.0 beta (build 457) - by Dester - opdester@freemail.hu
~~~~~~~~~~~~~~~~~~~~~~~~~~~~~~~~~~
-=== НЕ РЕДАКТИРУЙТЕ ЭТОТ ФАЙЛ! ===-
Путь: ...\CD 1
01 -=- 1.01. Xpansions - Move Your Body (Elevation) (Club Mix).flac -=- CDDA (100%)
02 -=- 1.02. Debbie Malone - Rescue Me.flac -=- CDDA (85%)
03 -=- 1.03. Psychotropic - Hypnosis.flac -=- CDDA (100%)
04 -=- 1.04. Bug Kann & The Plastic Jam - Made In 2 Minutes.flac -=- CDDA (100%)
05 -=- 1.05. The Blapps Posse - Don't Hold Back.flac -=- CDDA (100%)
06 -=- 1.06. Shut Up & Dance - 20 To Get In.flac -=- CDDA (100%)
07 -=- 1.07. Congress - 40 Miles (Instrumental).flac -=- CDDA (99%)
08 -=- 1.08. True Faith - Take Me Away (Pin-Up Bootleg Mix).flac -=- CDDA (99%)
09 -=- 1.09. Shades Of Rhythm - Homicide.flac -=- CDDA (100%)
10 -=- 1.10. Lennie De Ice - We Are I.E.flac -=- CDDA (100%)
11 -=- 1.11. Rhythm Section - Circuit Breaker.flac -=- CDDA (100%)
12 -=- 1.12. DJ Reckless - Reckless Karnage.flac -=- CDDA (100%)
13 -=- 1.13. Altern 8 - Activ 8 (Come With Me).flac -=- CDDA (100%)
14 -=- 1.14. MI 7 - Rockin' Down The House.flac -=- CDDA (100%)
15 -=- 1.15. 2 Bad Mice - 2 Bad Mice (Remix).flac -=- CDDA (100%)
16 -=- 1.16. SL2 - The Noise (Remix).flac -=- CDDA (100%)
17 -=- 1.17. Altern 8 - Infiltrate 202.flac -=- CDDA (99%)
18 -=- 1.18. Bass Construction - Dance With Power.flac -=- CDDA (100%)
19 -=- 1.19. Zero B - Lock Up.flac -=- CDDA (100%)
20 -=- 1.20. Bizarre Inc - Playing With Knives.flac -=- CDDA (100%)
21 -=- 1.21. Rhythm Quest - Closer To All Your Dreams (Hibrid Mix).flac -=- CDDA (100%)
22 -=- 1.22. Manix - Feel Real Good.flac -=- CDDA (100%)
23 -=- 1.23. Rachel Wallace - Tell Me Why (M & M Full Vocal Mix).flac -=- CDDA (100%)
Сводка 99,22% CDDA
175782868

CD 2

AUDIOCHECKER v2.0 beta (build 457) - by Dester - opdester@freemail.hu
~~~~~~~~~~~~~~~~~~~~~~~~~~~~~~~~~~
-=== НЕ РЕДАКТИРУЙТЕ ЭТОТ ФАЙЛ! ===-
Путь: ...\CD 2
01 -=- 2.01. SL2 - Way In My Brain.flac -=- CDDA (100%)
02 -=- 2.02. Ratpack - Brothers Sisters.flac -=- CDDA (100%)
03 -=- 2.03. Urban Shakedown - Some Justice.flac -=- CDDA (100%)
04 -=- 2.04. Urban Hype - A Trip To Trumpton (The Trumpton Remix).flac -=- CDDA (100%)
05 -=- 2.05. Sound Corp - Dreamfinder.flac -=- CDDA (100%)
06 -=- 2.06. MC Jay J & Devious D - Time Of Our Lives.flac -=- CDDA (100%)
07 -=- 2.07. Origination - Break Down.flac -=- CDDA (100%)
08 -=- 2.08. Phuture Assassins - Future Sound (2 Bad Mice Remix).flac -=- CDDA (100%)
09 -=- 2.09. Krome & Time - This Sound Is For The Underground (Remix).flac -=- CDDA (100%)
10 -=- 2.10. Nookie - Give A Little Love.flac -=- CDDA (99%)
11 -=- 2.11. The Prodigy - Your Love (Album Remix).flac -=- CDDA (100%)
12 -=- 2.12. Dance Conspiracy - Dub War (Chapter One).flac -=- CDDA (100%)
13 -=- 2.13. Nookie - Gonna Be Alright (Cloud 9 Remix).flac -=- CDDA (100%)
14 -=- 2.14. Krome & Time - The Slammer.flac -=- CDDA (100%)
15 -=- 2.15. DJ Slam - Looking Into The Light.flac -=- CDDA (100%)
16 -=- 2.16. The Moog - Jungle Muffin.flac -=- CDDA (100%)
17 -=- 2.17. DJ Solo - Darkage.flac -=- CDDA (100%)
18 -=- 2.18. Omni Trio - Renegade Snares (Foul Play Remix).flac -=- CDDA (100%)
19 -=- 2.19. Shades Of Rhythm - Sweet Sensation (Ray Keith VIP Mix).flac -=- CDDA (100%)
20 -=- 2.20. Q Project - Champion Sound (Alliance Remix).flac -=- CDDA (100%)
21 -=- 2.21. Slipmatt - Hear Me.flac -=- CDDA (100%)
22 -=- 2.22. Origin Unknown - Valley Of The Shadows.flac -=- CDDA (100%)
23 -=- 2.23. Slipmatt - Breaking Free.flac -=- CDDA (100%)
Сводка 99,96% CDDA
243877284

Скриншоты спектра частотCD 1



[islamvillage.com]_t_5558372.torrent
Торрент: Зарегистрирован ·  [ 2018-05-13 20:22 ] ·  1cd4e933163b92661cc202d96ac5684e6e717774

15 KB

Статус: проверено
Скачан: 0 раз
Размер: 1.08 GB
Оценка: 
(Голосов: 0)
Сказали спасибо: 0  Спасибо
Похожие темы
[Профиль]    [ЛС]
Показать сообщения:    
Ответить на тему

Текущее время: Сегодня 01:47

Часовой пояс: GMT + 7



Вы не можете начинать темы
Вы не можете отвечать на сообщения
Вы не можете редактировать свои сообщения
Вы не можете удалять свои сообщения
Вы не можете голосовать в опросах
Вы не можете прикреплять файлы к сообщениям
Вы можете скачивать файлы


Jeff Roy | Successful Education - 562 Words | HD The Darkest Minds