(Ska-Punk) [CD] Destination Anywhere - You Won\'t Bring Me Down - 2009, FLAC (tracks+.cue), lossless

Ответить на тему
Статистика раздачи [Обновить пиров]
Размер:  156 MB   |    Зарегистрирован:  7 месяцев 30 дней   |    Скачан:  0 раз

Полного источника не было: Никогда

 
   
 
 
 
Автор Сообщение

islamvillage.com

Создавать темы 19-Май-2018 00:13

[Цитировать]

Destination Anywhere / You Won't Bring Me Down
Жанр: Ska-Punk
Носитель: CD
Страна-производитель диска (релиза): Germany
Год издания: 2009
Издатель (лейбл): Not On Label (Destination Anywhere Self-released)
Номер по каталогу: None
Страна исполнителя (группы): Germany
Аудиокодек: FLAC (*.flac)
Тип рипа: tracks+.cue
Битрейт аудио: lossless
Продолжительность: 00:21:15
Источник (релизер): Собственный Диск (www.discogs.com)
Наличие сканов в содержимом раздачи: нет
Треклист:
1 - Hello Again
2 - All Alone
3 - The Stranger
4 - Makes My Day
5 - When It's Gone
6 - You Won't Bring Me Down
7 - Bonus Track: Makes My Day (Unplugged)

Лог создания рипа

Exact Audio Copy V1.3 from 2. September 2016
EAC extraction logfile from 15. May 2018, 22:33
Destination Anywhere / You don't bring me Down
Used drive : TSSTcorpCDDVDW SH-S223C Adapter: 1 ID: 0
Read mode : SecureUtilize accurate stream : YesDefeat audio cache : YesMake use of C2 pointers : No
Read offset correction : 6Overread into Lead-In and Lead-Out : NoFill up missing offset samples with silence : YesDelete leading and trailing silent blocks : NoNull samples used in CRC calculations : YesUsed interface : Native Win32 interface for Win NT & 2000Gap handling : Appended to previous track
Used output format : User Defined EncoderSelected bitrate : 128 kBit/sQuality : HighAdd ID3 tag : NoCommand line compressor : C:\Program Files (x86)\Exact Audio Copy\Flac\flac.exeAdditional command line options : -V -8 %source%
TOC of the extracted CD
Track | Start | Length | Start sector | End sector --------------------------------------------------------- 1 | 0:00.00 | 3:32.37 | 0 | 15936 2 | 3:32.37 | 2:38.71 | 15937 | 27857 3 | 6:11.33 | 2:56.74 | 27858 | 41131 4 | 9:08.32 | 3:32.21 | 41132 | 57052 5 | 12:40.53 | 2:34.74 | 57053 | 68676 6 | 15:15.52 | 2:36.42 | 68677 | 80418 7 | 17:52.19 | 3:27.32 | 80419 | 95975
Track 1
Filename C:\Users\TetroDoX\Documents\21\01 Hello again.wav
Pre-gap length 0:00:02.00
Peak level 100.0 % Extraction speed 1.7 X Track quality 99.9 % Test CRC DD8F2BF8 Copy CRC DD8F2BF8 Copy OK
Track 2
Filename C:\Users\TetroDoX\Documents\21\02 All alone.wav
Pre-gap length 0:00:01.00
Peak level 100.0 % Extraction speed 1.9 X Track quality 100.0 % Test CRC 131E80F3 Copy CRC 131E80F3 Copy OK
Track 3
Filename C:\Users\TetroDoX\Documents\21\03 The stranger.wav
Pre-gap length 0:00:01.00
Peak level 100.0 % Extraction speed 2.0 X Track quality 100.0 % Test CRC EAC76CFC Copy CRC EAC76CFC Copy OK
Track 4
Filename C:\Users\TetroDoX\Documents\21\04 Makes my day.wav
Pre-gap length 0:00:01.00
Peak level 100.0 % Extraction speed 2.0 X Track quality 100.0 % Test CRC CBE13DA9 Copy CRC CBE13DA9 Copy OK
Track 5
Filename C:\Users\TetroDoX\Documents\21\05 When it's gone.wav
Pre-gap length 0:00:01.00
Peak level 100.0 % Extraction speed 1.9 X Track quality 100.0 % Test CRC B1F01C40 Copy CRC B1F01C40 Copy OK
Track 6
Filename C:\Users\TetroDoX\Documents\21\06 You won't bring me down.wav
Pre-gap length 0:00:01.00
Peak level 92.5 % Extraction speed 1.9 X Track quality 100.0 % Test CRC 42A7FE21 Copy CRC 42A7FE21 Copy OK
Track 7
Filename C:\Users\TetroDoX\Documents\21\07 Makes my day (unplugged) Bonus Track.wav
Pre-gap length 0:00:04.00
Peak level 78.5 % Extraction speed 2.0 X Track quality 100.0 % Test CRC 69F9D06D Copy CRC 69F9D06D Copy OK
No errors occurred
End of status report
---- CUETools DB Plugin V2.1.6
[CTDB TOCID: 3yuWOC_fypubydkxuNRdFgWHRE4-] foundSubmit result: 3yuWOC_fypubydkxuNRdFgWHRE4- has been confirmedTrack | CTDB Status 1 | (1/1) Accurately ripped 2 | (1/1) Accurately ripped 3 | (1/1) Accurately ripped 4 | (1/1) Accurately ripped 5 | (1/1) Accurately ripped 6 | (1/1) Accurately ripped 7 | (1/1) Accurately ripped
==== Log checksum 730B30C3C2D86AD104BE974870AD518A2BA48F7FCE992ED1CC0A798DBAAADE52 ====

Содержание индексной карты (.CUE)

REM GENRE SkaREM DISCID 4C04FF07REM COMMENT "ExactAudioCopy v1.3"PERFORMER "Destination Anywhere"TITLE "You don't bring me Down"REM COMPOSER ""FILE "01 Hello again.wav" WAVE TRACK 01 AUDIO TITLE "Hello again" PERFORMER "Destination Anywhere" REM COMPOSER "" FLAGS DCP INDEX 01 00:00:00 TRACK 02 AUDIO TITLE "All alone" PERFORMER "Destination Anywhere" REM COMPOSER "" FLAGS DCP INDEX 00 03:31:37FILE "02 All alone.wav" WAVE INDEX 01 00:00:00 TRACK 03 AUDIO TITLE "The stranger" PERFORMER "Destination Anywhere" REM COMPOSER "" FLAGS DCP INDEX 00 02:37:71FILE "03 The stranger.wav" WAVE INDEX 01 00:00:00 TRACK 04 AUDIO TITLE "Makes my day" PERFORMER "Destination Anywhere" REM COMPOSER "" FLAGS DCP INDEX 00 02:55:74FILE "04 Makes my day.wav" WAVE INDEX 01 00:00:00 TRACK 05 AUDIO TITLE "When it's gone" PERFORMER "Destination Anywhere" REM COMPOSER "" FLAGS DCP INDEX 00 03:31:21FILE "05 When it's gone.wav" WAVE INDEX 01 00:00:00 TRACK 06 AUDIO TITLE "You won't bring me down" PERFORMER "Destination Anywhere" REM COMPOSER "" FLAGS DCP INDEX 00 02:33:74FILE "06 You won't bring me down.wav" WAVE INDEX 01 00:00:00 TRACK 07 AUDIO TITLE "Makes my day (unplugged) Bonus Track" PERFORMER "Destination Anywhere" REM COMPOSER "" FLAGS DCP INDEX 00 02:32:42FILE "07 Makes my day (unplugged) Bonus Track.wav" WAVE INDEX 01 00:00:00


[islamvillage.com]_t_5562635.torrent
Торрент: Зарегистрирован ·  [ 2018-05-19 00:12 ] ·  e6ecad7aff038d01a4ebde52d696f3bfaebf6ed7

13 KB

Статус: проверено
Скачан: 0 раз
Размер: 156 MB
Оценка: 
(Голосов: 0)
Сказали спасибо: 0  Спасибо
Похожие темы
[Профиль]    [ЛС]
Показать сообщения:    
Ответить на тему

Текущее время: Сегодня 06:28

Часовой пояс: GMT + 7



Вы не можете начинать темы
Вы не можете отвечать на сообщения
Вы не можете редактировать свои сообщения
Вы не можете удалять свои сообщения
Вы не можете голосовать в опросах
Вы не можете прикреплять файлы к сообщениям
Вы можете скачивать файлы


└ PC- & Videospiele | Adornos y platos decorativos | Tommee Tippee Sangenic TEC Recharge pour poubelle à couches