(Avant-garde Metal) [CD] Thy Catafalque - Geometria - 2018, FLAC (image+.cue), lossless

Ответить на тему
Статистика раздачи [Обновить пиров]
Размер:  397 MB   |    Зарегистрирован:  8 месяцев 23 дня   |    Скачан:  0 раз

Полного источника не было: Никогда

 
   
 
 
 
Автор Сообщение

islamvillage.com

Создавать темы 28-Май-2018 23:14

[Цитировать]

Thy Catafalque / Geometria
Жанр: Avant-garde Metal
Носитель: CD
Страна-производитель диска (релиза): Germany
Год издания: 2018
Издатель (лейбл): Season Of Mist
Номер по каталогу: SOM 458D
Страна исполнителя (группы): Hungary/U.K.
Аудиокодек: FLAC (*.flac)
Тип рипа: image+.cue
Битрейт аудио: lossless
Продолжительность: 55:59
Источник (релизер): ungern666
Наличие сканов в содержимом раздачи: да
Треклист:
01. Hajnali Csillag 08:15
02. Szamojéd Freskó 04:01
03. Töltés 04:26
04. Gőte 03:11
05. Sárember 06:42
06. Hajó 02:36
07. Lágyrész 04:54
08. Sík 03:47
09. Balra A Nap 05:04
10. Tenger, Tenger 04:53
11. Ének A Búzamezőkről 08:12

Лог создания рипа

Exact Audio Copy V1.1 from 23. June 2015
EAC extraction logfile from 25. May 2018, 20:37
Thy Catafalque / Geometria
Used drive : HP DVD Writer 1170d Adapter: 1 ID: 1
Read mode : SecureUtilize accurate stream : YesDefeat audio cache : YesMake use of C2 pointers : No
Read offset correction : 6Overread into Lead-In and Lead-Out : NoFill up missing offset samples with silence : YesDelete leading and trailing silent blocks : NoNull samples used in CRC calculations : YesUsed interface : Native Win32 interface for Win NT & 2000
Used output format : User Defined EncoderSelected bitrate : 1024 kBit/sQuality : HighAdd ID3 tag : NoCommand line compressor : C:\Program Files (x86)\Exact Audio Copy\Flac\flac.exeAdditional command line options : -V -8 -T "Date=%year%" -T "Genre=%genre%" %source%
TOC of the extracted CD
Track | Start | Length | Start sector | End sector --------------------------------------------------------- 1 | 0:00.00 | 8:14.43 | 0 | 37092 2 | 8:14.43 | 4:01.33 | 37093 | 55200 3 | 12:16.01 | 4:26.21 | 55201 | 75171 4 | 16:42.22 | 3:10.52 | 75172 | 89473 5 | 19:52.74 | 6:41.53 | 89474 | 119601 6 | 26:34.52 | 2:35.40 | 119602 | 131266 7 | 29:10.17 | 4:53.66 | 131267 | 153307 8 | 34:04.08 | 3:46.55 | 153308 | 170312 9 | 37:50.63 | 5:04.26 | 170313 | 193138 10 | 42:55.14 | 4:52.55 | 193139 | 215093 11 | 47:47.69 | 8:12.04 | 215094 | 251997
Range status and errors
Selected range
Filename C:\EAC\ungern666\Thy Catafalque - Geometria.wav
Peak level 100.0 % Extraction speed 5.8 X Range quality 100.0 % Test CRC BC09CE98 Copy CRC BC09CE98 Copy OK
No errors occurred
AccurateRip summary
Track 1 not present in databaseTrack 2 not present in databaseTrack 3 not present in databaseTrack 4 not present in databaseTrack 5 not present in databaseTrack 6 not present in databaseTrack 7 not present in databaseTrack 8 not present in databaseTrack 9 not present in databaseTrack 10 not present in databaseTrack 11 not present in database
None of the tracks are present in the AccurateRip database
End of status report
---- CUETools DB Plugin V2.1.6
[CTDB TOCID: osVb1aa_w00RYIXAFU.QyaU8YXo-] foundSubmit result: osVb1aa_w00RYIXAFU.QyaU8YXo- has been confirmedTrack | CTDB Status 1 | (10/10) Accurately ripped 2 | (10/10) Accurately ripped 3 | (10/10) Accurately ripped 4 | (10/10) Accurately ripped 5 | (10/10) Accurately ripped 6 | (10/10) Accurately ripped 7 | (10/10) Accurately ripped 8 | (10/10) Accurately ripped 9 | (10/10) Accurately ripped 10 | (10/10) Accurately ripped 11 | (10/10) Accurately ripped
==== Log checksum DD6A0A1E34D22C47ED4B778BFFEE62F3EFD9027C24FA47B859E4E31BFDB75BAF ====
- -Материал предназначен для ознакомления!


[islamvillage.com]_t_5566541.torrent
Торрент: Зарегистрирован ·  [ 2018-05-28 23:07 ] ·  29fcbd56e1bae06db87c65aa6d65a95cea9157ba

17 KB

Статус: проверено
Скачан: 0 раз
Размер: 397 MB
Оценка: 
(Голосов: 0)
Сказали спасибо: 0  Спасибо
Похожие темы
[Профиль]    [ЛС]
Показать сообщения:    
Ответить на тему

Текущее время: Сегодня 22:30

Часовой пояс: GMT + 7



Вы не можете начинать темы
Вы не можете отвечать на сообщения
Вы не можете редактировать свои сообщения
Вы не можете удалять свои сообщения
Вы не можете голосовать в опросах
Вы не можете прикреплять файлы к сообщениям
Вы можете скачивать файлы


дзёсэй | Miss 2059 | 48 vux de Noël FRENCH WEBRIP 2018