(Avant-Garde | Industrial Death Metal) [CD] Umbah - Trilobeth - 2007, FLAC (image+.cue), lossless

Ответить на тему
Статистика раздачи [Обновить пиров]
Размер:  396 MB   |    Зарегистрирован:  7 месяцев 2 дня   |    Скачан:  0 раз

Полного источника не было: Никогда

 
   
 
 
 
Автор Сообщение

islamvillage.com

Создавать темы 15-Июн-2018 22:07

[Цитировать]

Umbah - Trilobeth


• Жанр: Avant-garde Industrial Death Metal, Cybergrind
• Носитель: CD
• Страна-производитель диска (релиза): Italy
• Год издания: 2007 (2010)
• Издатель (номер по каталогу) I, Voidhunger (IVR-002)
• Страна исполнителя (группы): UK
• Аудиокодек: FLAC (*.flac)
• Тип рипа: image+.cue
• Продолжительность: 00:57:56
• Источник (релизер): whirlzzumm ®
• Наличие сканов: нет

01. The Fall of Modern Thought {00:05:19}
02. Horon Vahel {00:05:31}
03. Beehive {00:04:14}
04. Beryllium Crisis {00:05:54}
05. Sheep of Sad Fate {00:04:51}
06. A Happy Story {00:04:38}
07. A Little Uneasy {00:04:49}
08. Mesoria a Larhara {00:04:37}
09. A Zen Horizon {00:04:20}
10. To a Somber Place {00:01:57}
11. Trilobeth {00:04:06}
12. Girl From Mars {00:05:08}
13. Torn {00:02:25}
--

Лог создания рипа

Exact Audio Copy V1.0 beta 3 from 29. August 2011
Отчёт EAC об извлечении, выполненном 15. октября 2017, 21:06
Umbah / Trilobeth (Reissue 2010)
Дисковод: ASUS DRW-24D5MT Adapter: 0 ID: 0
Режим чтения : ДостоверностьИспользование точного потока : ДаОтключение кэша аудио : ДаИспользование указателей C2 : Нет
Коррекция смещения при чтении : 6Способность читать области Lead-in и Lead-out : НетЗаполнение пропущенных сэмплов тишиной : ДаУдаление блоков с тишиной в начале и конце : НетПри вычислениях CRC использовались нулевые сэмплы : ДаИнтерфейс : Встроенный Win32-интерфейс для Win NT/2000
Выходной формат : Пользовательский кодировщикВыбранный битрейт : 1024 kBit/sКачество : ВысокийДобавление ID3-тега : НетУтилита сжатия : C:\Program Files (x86)\FLAC\flac.exeДополнительные параметры : -V -8 -T "Date=%year%" -T "Genre=%genre%" %source%
TOC извлечённого CD
Трек | Старт | Длительность | Начальный сектор | Конечный сектор --------------------------------------------------------------------- 1 | 0:00.00 | 5:19.32 | 0 | 23956 2 | 5:19.32 | 5:31.44 | 23957 | 48825 3 | 10:51.01 | 4:14.05 | 48826 | 67880 4 | 15:05.06 | 5:54.56 | 67881 | 94486 5 | 20:59.62 | 4:51.07 | 94487 | 116318 6 | 25:50.69 | 4:38.56 | 116319 | 137224 7 | 30:29.50 | 4:49.57 | 137225 | 158956 8 | 35:19.32 | 4:37.42 | 158957 | 179773 9 | 39:56.74 | 4:20.06 | 179774 | 199279 10 | 44:17.05 | 1:57.65 | 199280 | 208119 11 | 46:14.70 | 4:06.37 | 208120 | 226606 12 | 50:21.32 | 5:08.64 | 226607 | 249770 13 | 55:30.21 | 2:25.54 | 249771 | 260699
Характеристики диапазона извлечения и сообщения об ошибках
Выбранный диапазон
Имя файла F:\FLAC 1 whirlzzumm\Umbah - Trilobeth (Reissue 2010).wav
Пиковый уровень 100.0 % Скорость извлечения 1.8 X Качество диапазона 100.0 % CRC теста 8FDCE0CA CRC копии 8FDCE0CA Копирование... OK
Ошибок не произошло
AccurateRip: сводка
Трек 1 отсутствует в базе данныхТрек 2 отсутствует в базе данныхТрек 3 отсутствует в базе данныхТрек 4 отсутствует в базе данныхТрек 5 отсутствует в базе данныхТрек 6 отсутствует в базе данныхТрек 7 отсутствует в базе данныхТрек 8 отсутствует в базе данныхТрек 9 отсутствует в базе данныхТрек 10 отсутствует в базе данныхТрек 11 отсутствует в базе данныхТрек 12 отсутствует в базе данныхТрек 13 отсутствует в базе данных
Ни одного трека нет в базе AccurateRip
Конец отчёта
==== Контрольная сумма отчёта 1D17657CC45195A8207382B7A1DE73D824D0DCD6E6B4C4DC53B8BD6ABA227D9C ====

Содержание индексной карты

REM GENRE "Death Metal, Avantgarde, Industrial"REM DATE 2007REM DISCID A50D940DREM COMMENT "ExactAudioCopy v1.0b3"PERFORMER "Umbah"TITLE "Trilobeth (Reissue 2010)"FILE "Umbah - Trilobeth (Reissue 2010).flac" WAVE TRACK 01 AUDIO TITLE "The Fall of Modern Thought" PERFORMER "Umbah" INDEX 01 00:00:00 TRACK 02 AUDIO TITLE "Horon Vahel" PERFORMER "Umbah" INDEX 01 05:19:32 TRACK 03 AUDIO TITLE "Beehive" PERFORMER "Umbah" INDEX 01 10:51:01 TRACK 04 AUDIO TITLE "Beryllium Crisis" PERFORMER "Umbah" INDEX 01 15:05:06 TRACK 05 AUDIO TITLE "Sheep of Sad Fate" PERFORMER "Umbah" INDEX 01 20:59:62 TRACK 06 AUDIO TITLE "A Happy Story" PERFORMER "Umbah" INDEX 01 25:50:69 TRACK 07 AUDIO TITLE "A Little Uneasy" PERFORMER "Umbah" INDEX 01 30:29:50 TRACK 08 AUDIO TITLE "Mesoria a Larhara" PERFORMER "Umbah" INDEX 01 35:19:32 TRACK 09 AUDIO TITLE "A Zen Horizon" PERFORMER "Umbah" INDEX 01 39:56:74 TRACK 10 AUDIO TITLE "To a Somber Place" PERFORMER "Umbah" INDEX 01 44:17:05 TRACK 11 AUDIO TITLE "Trilobeth" PERFORMER "Umbah" INDEX 01 46:14:70 TRACK 12 AUDIO TITLE "Girl From Mars" PERFORMER "Umbah" INDEX 01 50:21:32 TRACK 13 AUDIO TITLE "Torn" PERFORMER "Umbah" INDEX 01 55:30:21

Лог проверки качества

-----------------------
DON'T MODIFY THIS FILE
-----------------------
PERFORMER: auCDtect Task Manager, ver. 1.5.1RC3 build 1.5.1.4Copyright (c) 2008-2010 y-soft. All rights reservedhttp://y-soft.org
ANALYZER: auCDtect: CD records authenticity detector, version 0.8.2Copyright (c) 2004 Oleg Berngardt. All rights reserved.Copyright (c) 2004 Alexander Djourik. All rights reserved.
FILE: Umbah - Trilobeth (Reissue 2010).flac Size: 413430924 Hash: 08EED7521783C706AD4F4D5C0DA225E5 Accuracy: -m0 Conclusion: CDDA 100% Signature: C8FFCFEDA1B1AB431BA908C6BA1CBAE5346BCAF1

Скриншот спектра частот

-- --


[islamvillage.com]_t_5574856.torrent
Торрент: Зарегистрирован ·  [ 2018-06-15 22:06 ] ·  e605356abc67e7e4288463f5a356921ba9c16b21

16 KB

Статус: проверено
Скачан: 0 раз
Размер: 396 MB
Оценка: 
(Голосов: 0)
Сказали спасибо: 0  Спасибо
Похожие темы
[Профиль]    [ЛС]
Показать сообщения:    
Ответить на тему

Текущее время: Сегодня 04:01

Часовой пояс: GMT + 7



Вы не можете начинать темы
Вы не можете отвечать на сообщения
Вы не можете редактировать свои сообщения
Вы не можете удалять свои сообщения
Вы не можете голосовать в опросах
Вы не можете прикреплять файлы к сообщениям
Вы можете скачивать файлы


automobile gebraucht benzin | driver booster free 4.2.0.478 key | TÉLÉCHARGER