Победила я (Виктор Гуськов) [2015, социальный спектакль, драма, WEB-DLRip] Театр "Буриме", г. Тюмень

Ответить на тему
Статистика раздачи [Обновить пиров]
Размер:  745 MB   |    Зарегистрирован:  7 месяцев   |    Скачан:  0 раз

Полного источника не было: Никогда

 
   
 
 
 
Автор Сообщение

islamvillage.com

Создавать темы 18-Июн-2018 23:50

[Цитировать]

Победила я Название театра: Театр "Буриме", г. Тюмень.
Год выхода: 2015.
Жанр: социальный спектакль, драма.
Продолжительность: 00:58:46.
Режиссер: Виктор Гуськов.
Действующие лица и исполнители:
Наташа Верникова - Кристина Сенцова,
Наташа Скворцова - Дарья Циммерман.
О спектакле:
Первая премьера сезона 2014-2015 в театре «Буриме» - социальный спектакль по пьесе Ярославы Пулинович «Победила я». Ставшая уже культовой, пьеса за несколько лет облетела весь мир и даже докатилась до Бродвея. Театр «БУРИМЕ» второй раз обращается к пьесам Ярославы Пулинович, чтобы получить ответы, на вопросы, которые каждый из нас себе задавал. «Почему ей всё, а мне — ничего? Чем эта — талантливее меня? Когда тебе 16, все кажется простым и понятным. Работай хорошо, набирай баллы, приноси высокие оценки – родители тобой довольны и все жизненные дороги открыты. Но на деле оказывается, что все не так просто. Хорошее и плохое меняет привычные границы. Твой успех подвергается сомнению. На первое место выходит что-то большее, чем послушание – умение отличить доброе и злое внутри себя вне зависимости от мнения «твоих» взрослых. Ты должен взять ответственность за свои поступки. Наташе Верниковой судьба предлагает такую возможность. Останется ли она в прежних рамках или что-то изменит?»
Дополнительная информация:
Страна: Россия .
Выпущено: © Творческая группа "Телепорт" при поддержке © Союза театральных деятелей России и © "Коляда-Театра".
IX Международный фестиваль современной драматургии "Коляда-Plays".
Автор: Ярослава Пулинович.
Режиссер, художник: Виктор Гуськов.
Композитор: Вера Борисова.
[img]http://a.radikal.ru/a12/1806/5b/9bed2378af54.jpg[/img]
[img]http://c.radikal.ru/c35/1806/7e/06a820413712.jpg[/img] О спектакле.

Рип sharky.

Качество видео:...WEB-DLRip
Формат файла:.................AVI
Видео:..704x400 (1.76:1), 25 fps, DivX Codec 4.x ~1635 kbps avg, 0.23 bit/pixel
Аудио:..48 kHz, MPEG Layer 3, 2 ch, ~128.00 kbps avg

Отчет Media Info

General
Complete name : Pobedila.ya_Teatr.Burime.Tyumen'.2015.DivX.WEB-DLRip.fenixclub.avi
Format : AVI
Format/Info : Audio Video Interleave
File size : 745 MiB
Duration : 58mn 45s
Overall bit rate : 1 773 Kbps
Video
ID : 0
Format : MPEG-4 Visual
Format settings, BVOP : 1
Format settings, QPel : No
Format settings, GMC : No warppoints
Format settings, Matrix : Default (H.263)
Codec ID : DX50
Codec ID/Hint : DivX 5
Duration : 58mn 45s
Bit rate : 1 635 Kbps
Width : 704 pixels
Height : 400 pixels
Display aspect ratio : 16:9
Frame rate : 25.000 fps
Color space : YUV
Chroma subsampling : 4:2:0
Bit depth : 8 bits
Scan type : Progressive
Compression mode : Lossy
Bits/(Pixel*Frame) : 0.232
Stream size : 687 MiB (92%)
Title : Video
Writing library : DivX 3013
Audio
ID : 1
Format : MPEG Audio
Format version : Version 1
Format profile : Layer 3
Codec ID : 55
Codec ID/Hint : MP3
Duration : 58mn 45s
Bit rate mode : Constant
Bit rate : 128 Kbps
Channel(s) : 2 channels
Sampling rate : 48.0 KHz
Compression mode : Lossy
Stream size : 53.8 MiB (7%)
Alignment : Split accross interleaves
Interleave, duration : 40 ms (1.00 video frame)
Interleave, preload duratio : 500 ms
Title : Audio

Скриншоты




[islamvillage.com]_t_5575671.torrent
Торрент: Зарегистрирован ·  [ 2018-06-18 23:48 ] ·  00670e39c2f95b7d7ab5f86c7c22ba03d0455b52

15 KB

Статус: проверено
Скачан: 0 раз
Размер: 745 MB
Оценка: 
(Голосов: 0)
Сказали спасибо: 0  Спасибо
Похожие темы
[Профиль]    [ЛС]
Показать сообщения:    
Ответить на тему

Текущее время: Сегодня 08:47

Часовой пояс: GMT + 7



Вы не можете начинать темы
Вы не можете отвечать на сообщения
Вы не можете редактировать свои сообщения
Вы не можете удалять свои сообщения
Вы не можете голосовать в опросах
Вы не можете прикреплять файлы к сообщениям
Вы можете скачивать файлы


PlayStation Plus / Psn Plus / 12 Meses / 1 Año / ENTREGA HOY / LEER DESCRIPCIÓN | Tonari no Kyuuketsuki-san | More Details