Битва экстрасенсов / Сезон 17 Выпуск 16-17 ФИНАЛ (Олег Чаурс) [17.12.2016, Паранормальное шоу, SATRip]

Ответить на тему
Статистика раздачи [Обновить пиров]
Размер:  1.93 GB   |    Зарегистрирован:  7 месяцев 25 дней   |    Скачан:  0 раз

Полного источника не было: Никогда

 
   
 
 
 
Автор Сообщение

islamvillage.com

Создавать темы 25-Июн-2018 21:41

[Цитировать]

Битва экстрасенсов / Сезон 17 Выпуск 16-17 ФИНАЛ
Дата/Год выхода: 17.12.2016
Страна: Россия
Жанр: Паранормальное шоу
Продолжительность: 01:10:56
Перевод: Не требуется
Русские субтитры: нет
Режиссер: Олег Чаурс
Телеканал: ТНТ
Описание: 17-й сезон "Битвы экстрасенсов" - самого мистического, непредсказуемого и загадочного проекта российского ТВ. Новый сезон обещает стать самым необычным и удивительным в истории шоу!
качество: SATRip
формат: AVI
Видео: XviD, 720x400 px, 1800 kbps,
Аудио: MP3, 128 kbps, 2 ch

Список выпусков/серий

16 серия

MediaInfo

ОбщееПолное имя : C:\downloads\Bitva.ekstrasensov.17.16.SATRip.aviФормат файла : AVIФормат файла/Информация : Audio Video InterleaveРазмер файла : 985 МбайтПродолжительность : 1 ч. 10 м.Общий поток : 1941 Кбит/сек
ВидеоИдентификатор : 0Формат файла : MPEG-4 VisualПрофиль формата : Advanced Simple@L5Параметр BVOP формата : 2Параметр QPel формата : НетПараметр GMC формата : Без точки переходаПараметр матрицы формата : Default (H.263)Идентификатор кодека : XVIDИдентификатор кодека/Подсказка : XviDПродолжительность : 1 ч. 10 м.Битрейт : 1800 Кбит/секШирина : 720 пикселейВысота : 400 пикселейСоотношение сторон : 16:9Частота кадров : 25,000 кадров/секЦветовое пространство : YUVСубдискретизация насыщенности : 4:2:0Битовая глубина : 8 битТип развёртки : ПрогрессивнаяМетод сжатия : С потерямиБит/(Пиксели*Кадры) : 0.250Размер потока : 913 Мбайт (93%)Библиотека кодирования : XviD 1.2.1 (UTC 2008-12-04)
АудиоИдентификатор : 1Формат файла : MPEG AudioВерсия формата : Version 1Профиль формата : Layer 3Режим : Joint stereoРасширение режима : MS StereoИдентификатор кодека : 55Идентификатор кодека/Подсказка : MP3Продолжительность : 1 ч. 10 м.Вид битрейта : ПостоянныйБитрейт : 128 Кбит/секКаналы : 2 каналаЧастота : 48,0 КГцМетод сжатия : С потерямиРазмер потока : 64,9 Мбайт (7%)Выравнивание : Соединение по промежуткамПродолжительность промежутка : 24 мс. (0,60 видеокадр)Библиотека кодирования : LAME3.99rНастройки программы : -m j -V 4 -q 9 -lowpass 17 -b 128

Скриншоты



[islamvillage.com]_t_5327471.torrent
Торрент: Зарегистрирован ·  [ 2018-06-25 21:38 ] ·  4075c18ca04c0d8cb2d6050b66f5e0af84758615

20 KB

Статус: проверено
Скачан: 0 раз
Размер: 1.93 GB
Оценка: 
(Голосов: 0)
Сказали спасибо: 0  Спасибо
Похожие темы
[Профиль]    [ЛС]
Показать сообщения:    
Ответить на тему

Текущее время: Сегодня 19:49

Часовой пояс: GMT + 7



Вы не можете начинать темы
Вы не можете отвечать на сообщения
Вы не можете редактировать свои сообщения
Вы не можете удалять свои сообщения
Вы не можете голосовать в опросах
Вы не можете прикреплять файлы к сообщениям
Вы можете скачивать файлы


Anne auf Green Gables | Sonic Boom | Rosamund Pike