Цвета (Алексей Кравчук) [2014, Украина, гимн Женщине, WEB-DLRip] Луганский академический областной русский драматический театр им. П.Б. Луспекаева

Ответить на тему
Статистика раздачи [Обновить пиров]
Размер:  746 MB   |    Зарегистрирован:  6 месяцев 21 день   |    Скачан:  0 раз

Полного источника не было: Никогда

 
   
 
 
 
Автор Сообщение

islamvillage.com

Создавать темы 27-Июн-2018 21:57

[Цитировать]

Цвета Название театра: Луганский академический областной русский драматический театр им. П.Б. Луспекаева.
Год выхода: 2014.
Страна: Украина .
Жанр: гимн Женщине.
Продолжительность: 00:56:53.
Режиссер: заслуженный деятель искусств Украины Алексей Кравчук.
В ролях:
Анна Приходкина, Лариса Круглик, заслуженная артистка Украины Полина Шкуратова, заслуженная артистка Луганской Народной Республики Светлана Степкина-Долгая, Алина Гладких.
Описание:
Жизнь окрашена в разные цвета - розовый, оранжевый, красный и, конечно, черный и белый. Жизнь разноцветна. А начало и конец всегда один - белый лист бумаги, на котором пишутся воспоминания или планы на будущее.
Пьеса современного драматурга Павла Арье - гимн Женщине, её стойкости, её нежности, её юмору, её терпению.

Дополнительная информация:
Автор: Павло Арье.
Постановка и музыкальное оформление: заслуженный деятель искусств Украины Алексей Кравчук.
Художник-постановщик: Дарья Красноштан.
Премьера спектакля состоялась: 15 ноября 2014 г.
[img]http://a.radikal.ru/a18/1801/5a/02fbe0bdf4e3.jpg[/img]
О спектакле.

Рип sharky.

Качество видео:...WEB-DLRip
Формат файла:.................AVI
Видео:..704x400 (1.76:1), 25 fps, DivX Codec 4.x ~1694 kbps avg, 0.24 bit/pixel
Аудио:..44.100 kHz, MPEG Layer 3, 2 ch, ~128.00 kbps avg

Отчет Media Info

General
Complete name : Tsveta_Luganskij.AORDT.im.Luspekaeva.2014.DivX.WEB-DLRip.fenixclub.avi
Format : AVI
Format/Info : Audio Video Interleave
File size : 746 MiB
Duration : 56mn 53s
Overall bit rate : 1 832 Kbps
Video
ID : 0
Format : MPEG-4 Visual
Format settings, BVOP : 1
Format settings, QPel : No
Format settings, GMC : No warppoints
Format settings, Matrix : Default (H.263)
Codec ID : DX50
Codec ID/Hint : DivX 5
Duration : 56mn 53s
Bit rate : 1 694 Kbps
Width : 704 pixels
Height : 400 pixels
Display aspect ratio : 16:9
Frame rate : 25.000 fps
Color space : YUV
Chroma subsampling : 4:2:0
Bit depth : 8 bits
Scan type : Progressive
Compression mode : Lossy
Bits/(Pixel*Frame) : 0.241
Stream size : 689 MiB (92%)
Title : Video
Writing library : DivX 3013
Audio
ID : 1
Format : MPEG Audio
Format version : Version 1
Format profile : Layer 3
Codec ID : 55
Codec ID/Hint : MP3
Duration : 56mn 53s
Bit rate mode : Constant
Bit rate : 128 Kbps
Channel(s) : 2 channels
Sampling rate : 44.1 KHz
Compression mode : Lossy
Stream size : 52.1 MiB (7%)
Alignment : Split accross interleaves
Interleave, duration : 40 ms (1.00 video frame)
Interleave, preload duratio : 500 ms
Title : Audio

Скриншоты




[islamvillage.com]_t_5579319.torrent
Торрент: Зарегистрирован ·  [ 2018-06-27 21:57 ] ·  c88a8c294963ca11de9bd617744255c9a8b5c28c

15 KB

Статус: проверено
Скачан: 0 раз
Размер: 746 MB
Оценка: 
(Голосов: 0)
Сказали спасибо: 0  Спасибо
Похожие темы
[Профиль]    [ЛС]
Показать сообщения:    
Ответить на тему

Текущее время: Сегодня 08:43

Часовой пояс: GMT + 7



Вы не можете начинать темы
Вы не можете отвечать на сообщения
Вы не можете редактировать свои сообщения
Вы не можете удалять свои сообщения
Вы не можете голосовать в опросах
Вы не можете прикреплять файлы к сообщениям
Вы можете скачивать файлы


(0,70€/m) Perlseide Natur auf Kärtchen a' 2 m in verschiedenen Farben u. Stärken | Coppia Lampade Xeno Xenon D2S D2R D2C Ricambio 6000K | IMDb: 7 HD Christmas At The Palace