(Punk Rock / Ska Punk / Dub) [EP] Sonic Boom Six - Cardiac Address - 2017, FLAC (tracks+.cue), lossless

Ответить на тему
Статистика раздачи [Обновить пиров]
Размер:  146 MB   |    Зарегистрирован:  6 месяцев 6 дней   |    Скачан:  0 раз

Полного источника не было: Никогда

 
   
 
 
 
Автор Сообщение

islamvillage.com

Создавать темы 11-Июл-2018 22:54

[Цитировать]

Sonic Boom Six / Cardiac Address
Жанр: Punk Rock / Ska Punk / Dub
Носитель: EP
Год издания: 2017
Издатель (лейбл): Rebel Alliance Recordings
Номер по каталогу: REBL021
Страна исполнителя (группы): UK
Аудиокодек: FLAC (*.flac)
Тип рипа: tracks+.cue
Битрейт аудио: lossless
Продолжительность: 00:24:34
Источник (релизер): WEB
Наличие сканов в содержимом раздачи: нет
Треклист:
01. Sonic Boom Six - Western Society [2:02]
02. Sonic Boom Six - When You're a World Away [1:13]
03. Sonic Boom Six - Learn to Live With It [2:36]
04. Sonic Boom Six - My Philosophy [2:17]
05. Sonic Boom Six - Real Bad Dream [2:28]
06. Sonic Boom Six - The Kids We Used to Be [2:17]
07. Sonic Boom Six - Building a Wall [2:02]
08. Sonic Boom Six - Positivity (dub) [5:39]

Лог создания рипа

Exact Audio Copy V1.3 from 2. September 2016
EAC extraction logfile from 8. July 2018, 21:21
Sonic Boom Six / Cardiac Address
Used drive : Optiarc DVD RW AD-7200A Adapter: 1 ID: 0
Read mode : SecureUtilize accurate stream : YesDefeat audio cache : YesMake use of C2 pointers : No
Read offset correction : 48Overread into Lead-In and Lead-Out : NoFill up missing offset samples with silence : YesDelete leading and trailing silent blocks : NoNull samples used in CRC calculations : YesUsed interface : Native Win32 interface for Win NT & 2000Gap handling : Appended to previous track
Used output format : User Defined EncoderSelected bitrate : 1024 kBit/sQuality : HighAdd ID3 tag : NoCommand line compressor : C:\Program Files (x86)\Exact Audio Copy\Flac\flac.exeAdditional command line options : -8 -V -T "ARTIST=%artist%" -T "TITLE=%title%" -T "ALBUM=%albumtitle%" -T "DATE=%year%" -T "TRACKNUMBER=%tracknr%" -T "GENRE=%genre%" -T "COMMENT=%comment%" -T "BAND=%albuminterpret%" -T "ALBUMARTIST=%albuminterpret%" -T "COMPOSER=%composer%" %haslyrics%--tag-from-file=LYRICS="%lyricsfile%"%haslyrics% -T "TOTALTRACKS=%numtracks%" %hascover%--picture="%coverfile%"%hascover% %source% -o %dest%
TOC of the extracted CD
Track | Start | Length | Start sector | End sector --------------------------------------------------------- 1 | 0:00.00 | 2:02.32 | 0 | 9181 2 | 2:02.32 | 1:12.58 | 9182 | 14639 3 | 3:15.15 | 2:35.68 | 14640 | 26332 4 | 5:51.08 | 2:16.67 | 26333 | 36599 5 | 8:08.00 | 2:28.17 | 36600 | 47716 6 | 10:36.17 | 2:17.10 | 47717 | 58001 7 | 12:53.27 | 2:01.64 | 58002 | 67140 8 | 14:55.16 | 5:39.16 | 67141 | 92581
Track 1
Filename C:\music\Sonic Boom Six - Cardiac Address (2017)\01 Western Society.wav
Pre-gap length 0:00:02.00
Peak level 99.4 % Extraction speed 3.4 X Track quality 100.0 % Test CRC E3F3DAE6 Copy CRC E3F3DAE6 Track not present in AccurateRip database Copy OK
Track 2
Filename C:\music\Sonic Boom Six - Cardiac Address (2017)\02 When You're a World Away.wav
Peak level 100.0 % Extraction speed 3.8 X Track quality 100.0 % Test CRC 5E7A7884 Copy CRC 5E7A7884 Track not present in AccurateRip database Copy OK
Track 3
Filename C:\music\Sonic Boom Six - Cardiac Address (2017)\03 Learn to Live With It.wav
Peak level 98.8 % Extraction speed 3.8 X Track quality 100.0 % Test CRC 4A3D6E29 Copy CRC 4A3D6E29 Track not present in AccurateRip database Copy OK
Track 4
Filename C:\music\Sonic Boom Six - Cardiac Address (2017)\04 My Philosophy.wav
Peak level 98.6 % Extraction speed 4.2 X Track quality 100.0 % Test CRC FBFCB433 Copy CRC FBFCB433 Track not present in AccurateRip database Copy OK
Track 5
Filename C:\music\Sonic Boom Six - Cardiac Address (2017)\05 Real Bad Dream.wav
Peak level 88.4 % Extraction speed 5.1 X Track quality 100.0 % Test CRC F53F69F4 Copy CRC F53F69F4 Track not present in AccurateRip database Copy OK
Track 6
Filename C:\music\Sonic Boom Six - Cardiac Address (2017)\06 The Kids We Used to Be.wav
Peak level 88.4 % Extraction speed 3.3 X Track quality 99.9 % Test CRC F4793361 Copy CRC F4793361 Track not present in AccurateRip database Copy OK
Track 7
Filename C:\music\Sonic Boom Six - Cardiac Address (2017)\07 Building a Wall.wav
Peak level 98.7 % Extraction speed 3.2 X Track quality 99.9 % Test CRC F5D51C46 Copy CRC F5D51C46 Track not present in AccurateRip database Copy OK
Track 8
Filename C:\music\Sonic Boom Six - Cardiac Address (2017)\08 Positivity (dub).wav
Peak level 99.3 % Extraction speed 4.3 X Track quality 100.0 % Test CRC 8678E0A4 Copy CRC 8678E0A4 Track not present in AccurateRip database Copy OK
None of the tracks are present in the AccurateRip database
No errors occurred
End of status report
---- CUETools DB Plugin V2.1.6
[CTDB TOCID: C8Tx1h0FGPwY3_qjcyZZZG0w1ao-] disk not present in databaseSubmit result: C8Tx1h0FGPwY3_qjcyZZZG0w1ao- has been uploaded
==== Log checksum 1BC0EAEB2A647FDC0F8EDBC67D912F51DB3F7D1E42ECEA2F1653C283CF559461 ====

Содержание индексной карты (.CUE)

REM GENRE "Punk Rock"REM DATE 2017REM DISCID 6E04D208REM COMMENT "ExactAudioCopy v1.3"PERFORMER "Sonic Boom Six"TITLE "Cardiac Address"REM COMPOSER ""FILE "01 Western Society.wav" WAVE TRACK 01 AUDIO TITLE "Western Society" PERFORMER "Sonic Boom Six" REM COMPOSER "" INDEX 01 00:00:00FILE "02 When You're a World Away.wav" WAVE TRACK 02 AUDIO TITLE "When You're a World Away" PERFORMER "Sonic Boom Six" REM COMPOSER "" INDEX 01 00:00:00FILE "03 Learn to Live With It.wav" WAVE TRACK 03 AUDIO TITLE "Learn to Live With It" PERFORMER "Sonic Boom Six" REM COMPOSER "" INDEX 01 00:00:00FILE "04 My Philosophy.wav" WAVE TRACK 04 AUDIO TITLE "My Philosophy" PERFORMER "Sonic Boom Six" REM COMPOSER "" INDEX 01 00:00:00FILE "05 Real Bad Dream.wav" WAVE TRACK 05 AUDIO TITLE "Real Bad Dream" PERFORMER "Sonic Boom Six" REM COMPOSER "" INDEX 01 00:00:00FILE "06 The Kids We Used to Be.wav" WAVE TRACK 06 AUDIO TITLE "The Kids We Used to Be" PERFORMER "Sonic Boom Six" REM COMPOSER "" INDEX 01 00:00:00FILE "07 Building a Wall.wav" WAVE TRACK 07 AUDIO TITLE "Building a Wall" PERFORMER "Sonic Boom Six" REM COMPOSER "" INDEX 01 00:00:00FILE "08 Positivity (dub).wav" WAVE TRACK 08 AUDIO TITLE "Positivity (dub)" PERFORMER "Sonic Boom Six" REM COMPOSER "" INDEX 01 00:00:00

Лог проверки качества

CUE Corrector v. 8.3.4 / b. 863 (Jul. 06, 2018)————————————————————————————————————————————————————————————————————————Sonic Boom Six / Cardiac Address
CUE file: Sonic Boom Six - Cardiac Address FLAC.cueAudio files: 01 Western Society.flac [02:02.427; FLAC • 1044 kbps • 16 bit \ 44100 Hz • stereo; 15.25 MB (15 986 295 B)] 02 When You're a World Away.flac [01:12.773; FLAC • 1034 kbps • 16 bit \ 44100 Hz • stereo; 8.97 MB (9 406 102 B)] 03 Learn to Live With It.flac [02:35.907; FLAC • 1020 kbps • 16 bit \ 44100 Hz • stereo; 18.96 MB (19 878 764 B)] 04 My Philosophy.flac [02:16.893; FLAC • 979 kbps • 16 bit \ 44100 Hz • stereo; 15.98 MB (16 758 954 B)] 05 Real Bad Dream.flac [02:28.227; FLAC • 986 kbps • 16 bit \ 44100 Hz • stereo; 17.43 MB (18 277 485 B)] 06 The Kids We Used to Be.flac [02:17.133; FLAC • 993 kbps • 16 bit \ 44100 Hz • stereo; 16.24 MB (17 031 946 B)] 07 Building a Wall.flac [02:01.853; FLAC • 1038 kbps • 16 bit \ 44100 Hz • stereo; 15.09 MB (15 818 422 B)] 08 Positivity (dub).flac [05:39.213; FLAC • 936 kbps • 16 bit \ 44100 Hz • stereo; 37.87 MB (39 705 852 B)]
Accuracy: -m0
Track 01 - Western Society - 100% CDDA [02:02:32]Track 02 - When You're a World Away - 100% CDDA [01:12:58]Track 03 - Learn to Live With It - 100% CDDA [02:35:68]Track 04 - My Philosophy - 99% CDDA [02:16:67]Track 05 - Real Bad Dream - 100% CDDA [02:28:17]Track 06 - The Kids We Used to Be - 100% CDDA [02:17:10]Track 07 - Building a Wall - 100% CDDA [02:01:64]Track 08 - Positivity (dub) - 100% CDDA [05:39:16]————— Summary: —————These tracks looks like CDDA with probability 100%.————————————————————————————————————————————————————————————————————————
ANALYZER: auCDtect: CD records authenticity detector, version 0.8.2 Copyright (c) 2004 Oleg Berngardt. All rights reserved. Copyright (c) 2004 Alexander Djourik. All rights reserved.
Time elapsed: 1 m 28 sLog created at July 08, 2018 21:29:52
=== 8103A7EBD703BED410BECA55B1522313C74C554C3A16936AE7D69D1FE966B3C7 ===

Скриншот спектра частот



[islamvillage.com]_t_5584915.torrent
Торрент: Зарегистрирован ·  [ 2018-07-11 22:51 ] ·  52c37c5be67862a3f14f165d450c8b914309e82b

13 KB

Статус: проверено
Скачан: 0 раз
Размер: 146 MB
Оценка: 
(Голосов: 0)
Сказали спасибо: 0  Спасибо
Похожие темы
[Профиль]    [ЛС]
Показать сообщения:    
Ответить на тему

Текущее время: Сегодня 05:59

Часовой пояс: GMT + 7



Вы не можете начинать темы
Вы не можете отвечать на сообщения
Вы не можете редактировать свои сообщения
Вы не можете удалять свои сообщения
Вы не можете голосовать в опросах
Вы не можете прикреплять файлы к сообщениям
Вы можете скачивать файлы


Schrijfbenodigdheden | Fiat Panda 141 Kit Serrature Completo Porte Cofano Post. Accensione Con Chiavi | Architect 3D Platinum 17.6.0.1004.