Тайна мерцающих огоньков (ЛенТВ, дирекция детских и юношеских программ) (Андрей Князьков) [1995, Сказка, DVDRip-AVC]

Ответить на тему
Статистика раздачи [Обновить пиров]
Размер:  6.02 GB   |    Зарегистрирован:  6 месяцев 1 день   |    Скачан:  0 раз

Полного источника не было: Никогда

 
   
 
 
 
Автор Сообщение

islamvillage.com

Создавать темы 17-Июл-2018 23:28

[Цитировать]

Тайна мерцающих огоньков
[img=right]http://c.radikal.ru/c11/1806/f5/6b4d9ae68758.png[/img]
Жанр: Сказка
Год выхода: 1995
Продолжительность: 02:34:32
Режиссёр: Андрей Князьков
В ролях: Андрей Князьков, Александра Норец, Аня Зрелова, Надежда Карева и др.
Описание: Умная и добрая сказка о том, как важно быть верным своей мечте.
Фильм является частью телепередачи "Сказка за сказкой", которая выходила в эфир с середины 1970-х по начало 1990-х годов не только в Ленинграде, но и в других городах, а также в Польше и Чехословакии.
Качество видео: DVDRip (оцифровка со студийной кассеты Betacam).
Формат файла: MP4
Видео: MPEG-4, 720х576, 4:3, 25 fps, 8300 kbps
Аудио: mp3, 48 cHz, 2 ch, 256 kbps
Доп. инфорация:
Материал предоставил з.а. РФ Андрей Князьков
НЕ УХОДИТЕ С РАЗДАЧИ, ПОЖАЛУЙСТА! ДАЙТЕ ВОЗМОЖНОСТЬ СКАЧАТЬ ДРУГИМ! СПАСИБО!

MediaInfo

По первой части (остальные идентичны):
Полное имя : D:\02 - Тайна мерцающих огоньков (ЛенТВ, дирекция детских и юношеских программ, 1995)\1 ЧАСТЬ.mpg
Формат файла : MPEG-PS
Размер файла : 1,38 Гбайт
Продолжительность : 40 м. 42 с.
Режим общего битрейта : Постоянный
Общий поток : 4861 Кбит/сек
Видео
Идентификатор : 224 (0xE0)
Формат файла : MPEG Video
Версия формата : Version 2
Профиль формата : Main@Main
Настройки формата : CustomMatrix / BVOP
Параметр BVOP формата : Да
Параметр матрицы формата : Выборочная
Параметр GOP формата : Variable
Структура изображения : Frame
Продолжительность : 40 м. 42 с.
Вид битрейта : Постоянный
Битрейт : 4508 Кбит/сек
Максимальный битрейт : 8300 Кбит/сек
Ширина : 720 пикселей
Высота : 576 пикселей
Соотношение сторон : 4:3
Частота кадров : 25,000 кадров/сек
Стандарт вещания : PAL
Цветовое пространство : YUV
Субдискретизация насыщенности : 4:2:0
Битовая глубина : 8 бит
Тип развёртки : Чересстрочная
Порядок развёртки : Верхнее поле первое
Метод сжатия : С потерями
Бит/(Пиксели*Кадры) : 0.435
Временной код первого кадра : 00:00:00:00
Оригинал временного кода : Group of pictures header
Размер потока : 1,28 Гбайт (93%)
Аудио
Идентификатор : 189 (0xBD)-128 (0x80)
Формат файла : AC-3
Формат файла/Информация : Audio Coding 3
Режим смешивания : DVD-Video
Продолжительность : 40 м. 42 с.
Вид битрейта : Постоянный
Битрейт : 256 Кбит/сек
Каналы : 2 канала
Расположение каналов : Front: L R
Частота : 48,0 КГц
Частота кадров : 31,250 кадров/сек (1536 SPF)
Битовая глубина : 16 бит
Метод сжатия : С потерями
Размер потока : 74,5 Мбайт (5%)
ServiceKind/String : Complete Main

Скриншоты



[islamvillage.com]_t_5581769.torrent
Торрент: Зарегистрирован ·  [ 2018-07-17 23:28 ] ·  c95f546aa5157ef010486c24a07e65aa64f379a2

16 KB

Статус: проверено
Скачан: 0 раз
Размер: 6.02 GB
Оценка: 
(Голосов: 0)
Сказали спасибо: 0  Спасибо
Похожие темы
[Профиль]    [ЛС]
Показать сообщения:    
Ответить на тему

Текущее время: Сегодня 09:32

Часовой пояс: GMT + 7



Вы не можете начинать темы
Вы не можете отвечать на сообщения
Вы не можете редактировать свои сообщения
Вы не можете удалять свои сообщения
Вы не можете голосовать в опросах
Вы не можете прикреплять файлы к сообщениям
Вы можете скачивать файлы


حلقة 3 برنامج تخاريف الحلقة 3 الثالثة 2018 HDTv برنامج تخاريف الحلقة 3 الثالثة Talk-Show مشاهدة وتحميل برنامج تخاريف الحلقة الثالثة 3 تقديم وفاء الكيلاني اون لاين و تحميل مباشر | Xynthymr | Cinquante Nuances plus claires French Film Torrent BRrip 720p