(Rock, Ska, Rocksteady) [CD] The Specials - Singles - 1991, FLAC (tracks+.cue), lossless

Ответить на тему
Статистика раздачи [Обновить пиров]
Размер:  366 MB   |    Зарегистрирован:  5 месяцев 29 дней   |    Скачан:  0 раз

Полного источника не было: Никогда

 
   
 
 
 
Автор Сообщение

islamvillage.com

Создавать темы 19-Июл-2018 21:53

[Цитировать]

The Specials / Singles
Жанр: Rock, Ska, Rocksteady
Носитель: CD
Страна-производитель диска (релиза): Australia
Год издания: 1991
Издатель (лейбл): Two-Tone Records
Номер по каталогу: CCD 5010
Страна исполнителя (группы): England
Аудиокодек: FLAC (*.flac)
Тип рипа: tracks+.cue
Битрейт аудио: lossless
Продолжительность: 58:16
Источник (релизер): artmuss
Наличие сканов в содержимом раздачи: да
Треклист:
01. The Specials - Gangsters
02. The Specials - Rudi, A Message To You
03. The Specials - Nite Klub
04. The Specials - Too Much Too Young
05. The Specials - Guns Of Navarone
06. The Specials - Rat Race
07. The Specials - Stereotype
08. The Specials - International Jet Set
09. The Specials - Do Nothing
10. The Specials - Ghost Town
11. The Specials - Why
12. The Specials - Friday Night, Saturday Morning
13. The Specials A.K.A. - War Crimes
14. The Specials A.K.A. - Racist Friend
15. The Specials A.K.A. - Nelson Mandela
16. The Specials A.K.A. - (What I Like Most About You Is Your) Girlfriend

Лог создания рипа

Exact Audio Copy V1.3 from 2. September 2016
EAC extraction logfile from 21. June 2018, 21:44
The Specials / Singles
Used drive : ATAPI iHAS124 F Adapter: 1 ID: 0
Read mode : SecureUtilize accurate stream : YesDefeat audio cache : YesMake use of C2 pointers : No
Read offset correction : 6Overread into Lead-In and Lead-Out : NoFill up missing offset samples with silence : YesDelete leading and trailing silent blocks : NoNull samples used in CRC calculations : YesUsed interface : Native Win32 interface for Win NT & 2000Gap handling : Appended to previous track
Used output format : User Defined EncoderSelected bitrate : 1024 kBit/sQuality : HighAdd ID3 tag : NoCommand line compressor : C:\Program Files (x86)\Exact Audio Copy\Flac\flac.exeAdditional command line options : -8 -V -T "ARTIST=%artist%" -T "TITLE=%title%" -T "ALBUM=%albumtitle%" -T "DATE=%year%" -T "TRACKNUMBER=%tracknr%" -T "TOTALTRACKS=%numtracks%" -T "GENRE=%genre%" -T "ALBUMARTIST=%albumartist%" -T "ALBUM ARTIST=%albumartist%" -T "COMMENT=EAC Secure Mode, Test & Copy, AccurateRip, FLAC -8" %source%
TOC of the extracted CD
Track | Start | Length | Start sector | End sector --------------------------------------------------------- 1 | 0:00.00 | 2:48.27 | 0 | 12626 2 | 2:48.27 | 2:54.00 | 12627 | 25676 3 | 5:42.27 | 3:12.10 | 25677 | 40086 4 | 8:54.37 | 2:05.55 | 40087 | 49516 5 | 11:00.17 | 2:20.50 | 49517 | 60066 6 | 13:20.67 | 3:09.38 | 60067 | 74279 7 | 16:30.30 | 3:49.65 | 74280 | 91519 8 | 20:20.20 | 4:12.07 | 91520 | 110426 9 | 24:32.27 | 3:51.15 | 110427 | 127766 10 | 28:23.42 | 5:58.05 | 127767 | 154621 11 | 34:21.47 | 3:55.08 | 154622 | 172254 12 | 38:16.55 | 3:34.20 | 172255 | 188324 13 | 41:51.00 | 4:00.72 | 188325 | 206396 14 | 45:51.72 | 3:46.25 | 206397 | 223371 15 | 49:38.22 | 4:34.18 | 223372 | 243939 16 | 54:12.40 | 4:03.35 | 243940 | 262199
Track 1
Filename C:\Users\biafr_000\Music\The Specials - Singles (1991) [FLAC]\01 - The Specials - Gangsters.wav
Pre-gap length 0:00:02.00
Peak level 96.5 % Extraction speed 4.7 X Track quality 100.0 % Test CRC 8BDF8E56 Copy CRC 8BDF8E56 Accurately ripped (confidence 24) [63439551] (AR v2) Copy OK
Track 2
Filename C:\Users\biafr_000\Music\The Specials - Singles (1991) [FLAC]\02 - The Specials - Rudi, A Message To You.wav
Pre-gap length 0:00:00.27
Peak level 100.0 % Extraction speed 5.1 X Track quality 100.0 % Test CRC 89B9DFF2 Copy CRC 89B9DFF2 Accurately ripped (confidence 24) [85EE1377] (AR v2) Copy OK
Track 3
Filename C:\Users\biafr_000\Music\The Specials - Singles (1991) [FLAC]\03 - The Specials - Nite Klub.wav
Pre-gap length 0:00:00.52
Peak level 61.0 % Extraction speed 5.6 X Track quality 100.0 % Test CRC B21CF180 Copy CRC B21CF180 Accurately ripped (confidence 24) [4CD1AA79] (AR v2) Copy OK
Track 4
Filename C:\Users\biafr_000\Music\The Specials - Singles (1991) [FLAC]\04 - The Specials - Too Much Too Young.wav
Pre-gap length 0:00:00.65
Peak level 80.9 % Extraction speed 5.5 X Track quality 100.0 % Test CRC 6B37A6C4 Copy CRC 6B37A6C4 Accurately ripped (confidence 24) [F7332AEB] (AR v2) Copy OK
Track 5
Filename C:\Users\biafr_000\Music\The Specials - Singles (1991) [FLAC]\05 - The Specials - Guns Of Navarone.wav
Pre-gap length 0:00:00.72
Peak level 86.4 % Extraction speed 5.8 X Track quality 100.0 % Test CRC CC1341CF Copy CRC CC1341CF Accurately ripped (confidence 24) [85EA5CF6] (AR v2) Copy OK
Track 6
Filename C:\Users\biafr_000\Music\The Specials - Singles (1991) [FLAC]\06 - The Specials - Rat Race.wav
Pre-gap length 0:00:00.12
Peak level 94.7 % Extraction speed 6.4 X Track quality 100.0 % Test CRC 8AEAB997 Copy CRC 8AEAB997 Accurately ripped (confidence 25) [3761D358] (AR v2) Copy OK
Track 7
Filename C:\Users\biafr_000\Music\The Specials - Singles (1991) [FLAC]\07 - The Specials - Stereotype.wav
Pre-gap length 0:00:00.38
Peak level 100.0 % Extraction speed 6.9 X Track quality 100.0 % Test CRC 4AD73FF6 Copy CRC 4AD73FF6 Accurately ripped (confidence 24) [8B48DBA0] (AR v2) Copy OK
Track 8
Filename C:\Users\biafr_000\Music\The Specials - Singles (1991) [FLAC]\08 - The Specials - International Jet Set.wav
Pre-gap length 0:00:00.68
Peak level 81.4 % Extraction speed 7.4 X Track quality 100.0 % Test CRC 66DDD3FC Copy CRC 66DDD3FC Accurately ripped (confidence 24) [A157692D] (AR v2) Copy OK
Track 9
Filename C:\Users\biafr_000\Music\The Specials - Singles (1991) [FLAC]\09 - The Specials - Do Nothing.wav
Pre-gap length 0:00:01.32
Peak level 90.5 % Extraction speed 7.7 X Track quality 100.0 % Test CRC B9E694B1 Copy CRC B9E694B1 Accurately ripped (confidence 24) [1AFF65B3] (AR v2) Copy OK
Track 10
Filename C:\Users\biafr_000\Music\The Specials - Singles (1991) [FLAC]\10 - The Specials - Ghost Town.wav
Pre-gap length 0:00:00.12
Peak level 98.8 % Extraction speed 8.4 X Track quality 100.0 % Test CRC E9D57CED Copy CRC E9D57CED Accurately ripped (confidence 23) [EECA604E] (AR v2) Copy OK
Track 11
Filename C:\Users\biafr_000\Music\The Specials - Singles (1991) [FLAC]\11 - The Specials - Why.wav
Pre-gap length 0:00:00.10
Peak level 100.0 % Extraction speed 8.4 X Track quality 100.0 % Test CRC 9F999FD2 Copy CRC 9F999FD2 Accurately ripped (confidence 23) [3B3CDBFF] (AR v2) Copy OK
Track 12
Filename C:\Users\biafr_000\Music\The Specials - Singles (1991) [FLAC]\12 - The Specials - Friday Night, Saturday Morning.wav
Pre-gap length 0:00:00.05
Peak level 100.0 % Extraction speed 8.5 X Track quality 100.0 % Test CRC 1023FDBC Copy CRC 1023FDBC Accurately ripped (confidence 23) [ABA520C6] (AR v2) Copy OK
Track 13
Filename C:\Users\biafr_000\Music\The Specials - Singles (1991) [FLAC]\13 - The Specials A.K.A. - War Crimes.wav
Pre-gap length 0:00:00.68
Peak level 77.1 % Extraction speed 9.0 X Track quality 100.0 % Test CRC D9C8FA93 Copy CRC D9C8FA93 Accurately ripped (confidence 24) [11E139FA] (AR v2) Copy OK
Track 14
Filename C:\Users\biafr_000\Music\The Specials - Singles (1991) [FLAC]\14 - The Specials A.K.A. - Racist Friend.wav
Pre-gap length 0:00:01.17
Peak level 86.8 % Extraction speed 9.1 X Track quality 100.0 % Test CRC E781A050 Copy CRC E781A050 Accurately ripped (confidence 23) [339BE8A4] (AR v2) Copy OK
Track 15
Filename C:\Users\biafr_000\Music\The Specials - Singles (1991) [FLAC]\15 - The Specials A.K.A. - Nelson Mandela.wav
Pre-gap length 0:00:02.42
Peak level 94.9 % Extraction speed 8.2 X Track quality 99.9 % Test CRC 227D04CE Copy CRC 227D04CE Accurately ripped (confidence 23) [913442C1] (AR v2) Copy OK
Track 16
Filename C:\Users\biafr_000\Music\The Specials - Singles (1991) [FLAC]\16 - The Specials A.K.A. - (What I Like Most About You Is Your) Girlfriend.wav
Pre-gap length 0:00:01.40
Peak level 95.5 % Extraction speed 9.8 X Track quality 100.0 % Test CRC 79D10D8F Copy CRC 79D10D8F Accurately ripped (confidence 21) [7D772FD0] (AR v2) Copy OK
All tracks accurately ripped
No errors occurred
End of status report
---- CUETools DB Plugin V2.1.6
[CTDB TOCID: 7VRtoqgDmCeDaGdWo7HpUXkY.h8-] foundSubmit result: 7VRtoqgDmCeDaGdWo7HpUXkY.h8- has been confirmedTrack | CTDB Status 1 | (260/264) Accurately ripped 2 | (263/264) Accurately ripped 3 | (263/264) Accurately ripped 4 | (264/264) Accurately ripped 5 | (264/264) Accurately ripped 6 | (262/264) Accurately ripped 7 | (263/264) Accurately ripped 8 | (263/264) Accurately ripped 9 | (263/264) Accurately ripped 10 | (259/264) Accurately ripped 11 | (262/264) Accurately ripped 12 | (261/264) Accurately ripped 13 | (263/264) Accurately ripped 14 | (263/264) Accurately ripped 15 | (260/264) Accurately ripped 16 | (259/264) Accurately ripped
==== Log checksum 42D0DFCE0BCAEDFE62735D3B7E07D14D4DF148AFCE6B65A5024676AE071D9B43 ====

Содержание индексной карты (.CUE)

REM GENRE SkaREM DATE 1991REM DISCID D00DA810REM COMMENT "ExactAudioCopy v1.3"PERFORMER "The Specials"TITLE "Singles"REM COMPOSER ""FILE "01. Gangsters.wav" WAVE TRACK 01 AUDIO TITLE "Gangsters" PERFORMER "The Specials" REM COMPOSER "" INDEX 01 00:00:00 TRACK 02 AUDIO TITLE "Rudi, A Message To You" PERFORMER "The Specials" REM COMPOSER "" INDEX 00 02:48:00FILE "02. Rudi, A Message To You.wav" WAVE INDEX 01 00:00:00 TRACK 03 AUDIO TITLE "Nite Klub" PERFORMER "The Specials" REM COMPOSER "" INDEX 00 02:53:23FILE "03. Nite Klub.wav" WAVE INDEX 01 00:00:00 TRACK 04 AUDIO TITLE "Too Much Too Young" PERFORMER "The Specials" REM COMPOSER "" INDEX 00 03:11:20FILE "04. Too Much Too Young.wav" WAVE INDEX 01 00:00:00 TRACK 05 AUDIO TITLE "Guns Of Navarone" PERFORMER "The Specials" REM COMPOSER "" INDEX 00 02:04:58FILE "05. Guns Of Navarone.wav" WAVE INDEX 01 00:00:00 TRACK 06 AUDIO TITLE "Rat Race" PERFORMER "The Specials" REM COMPOSER "" INDEX 00 02:20:38FILE "06. Rat Race.wav" WAVE INDEX 01 00:00:00 TRACK 07 AUDIO TITLE "Stereotype" PERFORMER "The Specials" REM COMPOSER "" INDEX 00 03:09:00FILE "07. Stereotype.wav" WAVE INDEX 01 00:00:00 TRACK 08 AUDIO TITLE "International Jet Set" PERFORMER "The Specials" REM COMPOSER "" INDEX 00 03:48:72FILE "08. International Jet Set.wav" WAVE INDEX 01 00:00:00 TRACK 09 AUDIO TITLE "Do Nothing" PERFORMER "The Specials" REM COMPOSER "" INDEX 00 04:10:50FILE "09. Do Nothing.wav" WAVE INDEX 01 00:00:00 TRACK 10 AUDIO TITLE "Ghost Town" PERFORMER "The Specials" REM COMPOSER "" INDEX 00 03:51:03FILE "10. Ghost Town.wav" WAVE INDEX 01 00:00:00 TRACK 11 AUDIO TITLE "Why" PERFORMER "The Specials" REM COMPOSER "" INDEX 00 05:57:70FILE "11. Why.wav" WAVE INDEX 01 00:00:00 TRACK 12 AUDIO TITLE "Friday Night, Saturday Morning" PERFORMER "The Specials" REM COMPOSER "" INDEX 00 03:55:03FILE "12. Friday Night, Saturday Morning.wav" WAVE INDEX 01 00:00:00 TRACK 13 AUDIO TITLE "War Crimes" PERFORMER "The Specials A.K.A." REM COMPOSER "" INDEX 00 03:33:27FILE "13. War Crimes.wav" WAVE INDEX 01 00:00:00 TRACK 14 AUDIO TITLE "Racist Friend" PERFORMER "The Specials A.K.A." REM COMPOSER "" INDEX 00 03:59:55FILE "14. Racist Friend.wav" WAVE INDEX 01 00:00:00 TRACK 15 AUDIO TITLE "Nelson Mandela" PERFORMER "The Specials A.K.A." REM COMPOSER "" INDEX 00 03:43:58FILE "15. Nelson Mandela.wav" WAVE INDEX 01 00:00:00 TRACK 16 AUDIO TITLE "(What I Like Most About You Is Your) Girlfriend" PERFORMER "The Specials A.K.A." REM COMPOSER "" INDEX 00 04:32:53FILE "16. (What I Like Most About You Is Your) Girlfriend.wav" WAVE INDEX 01 00:00:00

DR Log

foobar2000 1.1.10 / Dynamic Range Meter 1.1.1log date: 2018-07-16 21:26:07
--------------------------------------------------------------------------------Analyzed: The Specials A.K.A. / Singles (1-4) The Specials / Singles (5-16)--------------------------------------------------------------------------------
DR Peak RMS Duration Track--------------------------------------------------------------------------------DR12 -2.25 dB -17.22 dB 4:01 ?-War CrimesDR13 -1.22 dB -16.47 dB 3:46 ?-Racist FriendDR13 -0.45 dB -15.54 dB 4:34 ?-Nelson MandelaDR14 -0.40 dB -16.05 dB 4:03 ?-(What I Like Most About You Is Your) GirlfriendDR13 -0.31 dB -15.18 dB 2:48 ?-GangstersDR16 0.00 dB -17.89 dB 2:54 ?-Rudi, A Message To YouDR11 -4.28 dB -17.68 dB 3:12 ?-Nite KlubDR11 -1.84 dB -15.66 dB 2:06 ?-Too Much Too YoungDR12 -1.27 dB -14.68 dB 2:21 ?-Guns Of NavaroneDR14 -0.47 dB -15.30 dB 3:10 ?-Rat RaceDR14 0.00 dB -15.77 dB 3:50 ?-StereotypeDR12 -1.78 dB -16.14 dB 4:12 ?-International Jet SetDR13 -0.87 dB -15.72 dB 3:51 ?-Do NothingDR15 -0.10 dB -16.72 dB 5:58 ?-Ghost TownDR14 0.00 dB -15.60 dB 3:55 ?-WhyDR14 0.00 dB -15.95 dB 3:34 ?-Friday Night, Saturday Morning--------------------------------------------------------------------------------
Number of tracks: 16Official DR value: DR13
Samplerate: 44100 HzChannels: 2Bits per sample: 16Bitrate: 837 kbpsCodec: FLAC================================================================================

Об альбоме (сборнике)

Out of print in the U.S.! Import compilation featuring entirely different artwork than the deleted U.S. version, but including all the same wonderful tracks. Although they spearheaded the Ska movement of the late '70s and early '80s, the Specials were so much more than a revivalist band as these songs prove. 15 tracks including 'Rat Race', 'Gangsters', 'Free Nelson Mandela', 'Rudi, a Message to You', 'Too Much Too Young' and many more. Features cuts from both incarnations of the band: The Specials and the Special A.K.A. EMI.
http://en.wikipedia.org/wiki/The_Specials

Состав

Bass – Gary McManus (tracks: 13 to 16), Horace Panter (tracks: 1 to 12)
Drums – John Bradbury
Flugelhorn, Cornet – Dick Cuthell (tracks: 2, 3, 5, 7, 8, 10, 11, 14 to 16)
Guitar – John Shipley (tracks: 13 to 16), Roddy Radiation (tracks: 1 to 12)
Guitar, Backing Vocals – Lynval Golding (tracks: 1 to 12)
Keyboards – Jerry Dammers (tracks: 13 to 16)
Organ, Piano – Jerry Dammers (tracks: 1 to 12)
Trombone – Rico Rodriguez (tracks: 2, 3, 5, 8 to 11, 16)
Vocals – Egidio Newton (tracks: 13 to 16), Rhoda Dakar (tracks: 13 to 16), Stan Campbell (tracks: 13 to 16), Terry Hall (tracks: 1 to 12)
Vocals, Percussion – Neville Staple (tracks: 1 to 12)
-Раздаю до первых 5-ти скачавших, на раздачи не возвращаюсь...-


[islamvillage.com]_t_5588279.torrent
Торрент: Зарегистрирован ·  [ 2018-07-19 21:51 ] ·  bfa03f16f3b2f042cb076dacc4dc5f73bf9140d2

16 KB

Статус: проверено
Скачан: 0 раз
Размер: 366 MB
Оценка: 
(Голосов: 0)
Сказали спасибо: 0  Спасибо
Похожие темы
[Профиль]    [ЛС]
Показать сообщения:    
Ответить на тему

Текущее время: Сегодня 07:13

Часовой пояс: GMT + 7



Вы не можете начинать темы
Вы не можете отвечать на сообщения
Вы не можете редактировать свои сообщения
Вы не можете удалять свои сообщения
Вы не можете голосовать в опросах
Вы не можете прикреплять файлы к сообщениям
Вы можете скачивать файлы


Документальный | └ Art | Fast & Furious Tamil Dubbed Collection 2001 2013 720p BD Rip Tamil+Hindi+Telugu+English E Sub