Единственный свидетель (В.Станицын) [1973, драма, DVB, AVC] Московский Художественный академический театр им. Горького

Ответить на тему
Статистика раздачи [Обновить пиров]
Размер:  1.47 GB   |    Зарегистрирован:  5 месяцев 16 дней   |    Скачан:  0 раз

Полного источника не было: Никогда

 
   
 
 
 
Автор Сообщение

islamvillage.com

Создавать темы 01-Авг-2018 17:21

[Цитировать]

Единственный свидетель
Название театра: Московский Художественный академический театр им. Горького
Жанр: драма
Год выхода: 1973
Продолжительность: 01:52:27
Режиссёр: В.Станицын
В ролях: Степанова А., Золотухин Л., Калиновская Г., Кошукова Л., Мирошниченко И., Муравьев В., Беляков В. и другие
Описание: Известный хирург академик Сабурова решилась на очень трудную операцию ею же в свое время разработанным методом. Профессор Садовников открыл Сабуровой горькую правду: различные симпозиумы, совещания и встречи отдалили ее от практической хирургии, и было бы правильнее поручить операцию другому врачу.
Доп. информация:
запись потока *.ts со спутника EUTELSAT 36A/B, 36° в.д., ремукс в *.mkv программой VideoReDo.
Качество видео: DVB
Формат файла: MKV
Видео: Advanced Video Codec, 720(768)x576 (4:3), 25,000 кадров/сек, 1 643 Кбит/сек
Аудио: MPEG Audio, 48,0 КГц, 192 Кбит/сек, 2 канала

Источник: Torrentc

http://Torrentc/forum/viewtopic.php?t=412812

MediaInfo

General
Unique ID : 99883919192830789707288090491294140963 (0x4B24F16E956AE3E629F6D87CAF0D4A23)
Complete name : D:\Torrent\ЕДИНСТВЕННЫЙ СВИДЕТЕЛЬ (Ностальгия).mkv
Format : Matroska
Format version : Version 2
File size : 1.47 GiB
Duration : 1 h 52 min
Overall bit rate : 1 872 kb/s
Writing application : Lavf52.64.2
Writing library : Lavf52.64.2
Video
ID : 1
Format : AVC
Format/Info : Advanced Video Codec
Format profile : High@L3
Format settings : CABAC / 4 Ref Frames
Format settings, CABAC : Yes
Format settings, ReFrames : 4 frames
Codec ID : V_MPEG4/ISO/AVC
Duration : 1 h 52 min
Bit rate : 1 643 kb/s
Width : 720 pixels
Height : 576 pixels
Display aspect ratio : 4:3
Original display aspect rat : 4:3
Frame rate mode : Constant
Frame rate : 25.000 FPS
Standard : Component
Color space : YUV
Chroma subsampling : 4:2:0
Bit depth : 8 bits
Scan type : Interlaced
Scan type, store method : Separated fields
Scan order : Top Field First
Bits/(Pixel*Frame) : 0.158
Stream size : 1.29 GiB (88%)
Default : Yes
Forced : No
Color range : Limited
Color primaries : BT.601 PAL
Transfer characteristics : BT.470 System B/G
Matrix coefficients : BT.470 System B/G
Audio
ID : 2
Format : MPEG Audio
Format version : Version 1
Format profile : Layer 2
Codec ID : A_MPEG/L2
Codec ID/Hint : MP2
Duration : 1 h 52 min
Bit rate mode : Constant
Bit rate : 192 kb/s
Channel(s) : 2 channels
Sampling rate : 48.0 kHz
Compression mode : Lossy
Stream size : 154 MiB (10%)
Language : Russian
Default : Yes
Forced : No

Скриншот с названием постановки



[islamvillage.com]_t_5592039.torrent
Торрент: Зарегистрирован ·  [ 2018-08-01 17:21 ] ·  17cacf6b77c8aaca9c5519b2fa8b4a6f80c4ef7b

15 KB

Статус: проверено
Скачан: 0 раз
Размер: 1.47 GB
Оценка: 
(Голосов: 0)
Сказали спасибо: 0  Спасибо
Похожие темы
[Профиль]    [ЛС]
Показать сообщения:    
Ответить на тему

Текущее время: Сегодня 06:12

Часовой пояс: GMT + 7



Вы не можете начинать темы
Вы не можете отвечать на сообщения
Вы не можете редактировать свои сообщения
Вы не можете удалять свои сообщения
Вы не можете голосовать в опросах
Вы не можете прикреплять файлы к сообщениям
Вы можете скачивать файлы


Keppeki Danshi! Aoyama-kun | KnitPro Symfonie Wood Interchangeable Circular Knitting Needle Tips | Newt Arnold