Искатели - "Бездонный колодец Валдая" [2014, документальный, DVB]

Ответить на тему
Статистика раздачи [Обновить пиров]
Размер:  998 MB   |    Зарегистрирован:  2 года   |    Скачан:  1 раз

Полного источника не было: 3 дня

 
   
 
 
 
Автор Сообщение

islamvillage.com

Создавать темы 18-Фев-2017 22:26

[Цитировать]

Искатели - "Бездонный колодец Валдая".
Год выхода: 2014
Страна: Россия
Жанр: Документальный
Продолжительность: 00:43:54
Перевод: Не требуется

Описание

Цикл познавательно-приключенческих программ, посвященный общественно значимым событиям истории России и зарубежья, а также частным историям известных людей, которые оставили потомкам много вопросов и тайн. Жанр цикла – историческое расследование, "телевизионные приключения для взрослых". Чтобы разгадать очередную тайну, "Искатели" исследуют как летописные источники, так и находки, обнаруженные непосредственно на месте исторических событий .
В выпуске: Летом 1916 года знаменитый мистик, ученый и художник Николай Рерих отправился в свою последнюю экспедицию на Валдайскую возвышенность. Таких экспедиций он провел несколько десятков и практически все в одном месте - в окрестностях озера Пирос. Из каждой поездки он привозил археологические находки, но в отчете о последней экспедиции говорится не о раскопках. Он называется "Чаша неотпитая" и наполнен поэтичными пророчествами и размышлениями о будущем родины, но главное - там есть несколько строк о некоем чудесном источнике, который он посчитал чуть ли не символом России. Что же обнаружил Рерих в своей последней поездке на Валдай и почему после этого круто изменил ареал своих поисков? Что такое "неотпитая чаша", которая так поразила художника?
Качество видео: DVB
Формат файла: MPEG-PS
Видео: MPEG2 Video, 720x576 (4:3), 25 fps, 2900 kbps
Аудио: MPEG Audiо, 2 сh, 48 kHz, 192 kbps
Трансляция спутникового канала:

MediaInfo

General
Complete name : D:\Искатели. Бездонный колодец Валдая. (2014)_DVB by SLuMeP.mpg
Format : MPEG-PS
File size : 998 MiB
Duration : 43mn 54s
Overall bit rate mode : Variable
Overall bit rate : 3 177 Kbps
Video
ID : 224 (0xE0)
Format : MPEG Video
Format version : Version 2
Format profile : Main@Main
Format settings, BVOP : No
Format settings, Matrix : Custom
Format settings, GOP : Variable
Duration : 43mn 54s
Bit rate mode : Variable
Bit rate : 2 921 Kbps
Maximum bit rate : 15.0 Mbps
Width : 720 pixels
Height : 576 pixels
Display aspect ratio : 4:3
Frame rate : 25.000 fps
Standard : PAL
Color space : YUV
Chroma subsampling : 4:2:0
Bit depth : 8 bits
Scan type : Interlaced
Scan order : Top Field First
Compression mode : Lossy
Bits/(Pixel*Frame) : 0.282
Time code of first frame : 00:00:00:00
Time code source : Group of pictures header
Stream size : 917 MiB (92%)
Audio
ID : 192 (0xC0)
Format : MPEG Audio
Format version : Version 1
Format profile : Layer 2
Duration : 43mn 54s
Bit rate mode : Constant
Bit rate : 192 Kbps
Channel(s) : 2 channels
Sampling rate : 48.0 KHz
Compression mode : Lossy
Stream size : 60.3 MiB (6%)

Скриншоты



[islamvillage.com]_t_4895332.torrent
Торрент: Зарегистрирован ·  [ 2017-02-18 22:18 ] ·  8fc078ce8095e8dc34bb78f1992dadd6caa976d7

20 KB

Статус: проверено
Скачан: 1 раз
Размер: 998 MB
Оценка: 
(Голосов: 0)
Сказали спасибо: 1  Спасибо   (список)
Похожие темы
[Профиль]    [ЛС]

islamvillage.com

Создавать темы 28-Авг-2018 01:32 (спустя 1 год 6 месяцев)

[Цитировать]

Что-то совсем нет раздачи
[Профиль]    [ЛС]
Показать сообщения:    
Ответить на тему

Текущее время: Сегодня 18:57

Часовой пояс: GMT + 7



Вы не можете начинать темы
Вы не можете отвечать на сообщения
Вы не можете редактировать свои сообщения
Вы не можете удалять свои сообщения
Вы не можете голосовать в опросах
Вы не можете прикреплять файлы к сообщениям
Вы можете скачивать файлы


[ Zobacz pelny opis ... ] | 4,4 su 5 stelle | Super Dragon Ball Heroes