(Avant-garde, Experimental Metal) [CD] Girth - Sleeper, Awaken! - 2007, FLAC (image+.cue), lossless

Ответить на тему
Статистика раздачи [Обновить пиров]
Размер:  126 MB   |    Зарегистрирован:  5 месяцев 19 дней   |    Скачан:  0 раз

Полного источника не было: Никогда

 
   
 
 
 
Автор Сообщение

islamvillage.com

Создавать темы 02-Сен-2018 20:59

[Цитировать]

Girth / Sleeper, Awaken!
Жанр: Avant-garde, Experimental Metal
Носитель: CD
Страна-производитель диска (релиза): USA
Год издания: 2007
Издатель (лейбл): Web of Mimicry
Номер по каталогу: WoM033
Страна исполнителя (группы): USA
Аудиокодек: FLAC (*.flac)
Тип рипа: image+.cue
Битрейт аудио: lossless
Продолжительность: 16:50:53
Источник (релизер): собственный рип
Наличие сканов в содержимом раздачи: да
Треклист:
1. Confusion - "On The Day My Illusion Shatters, I SEE."
2. Betrayal - "I Will Rise As You Will Die, Diminishing Within My Luminous Pride."
3. Alone - "Wallowing In My Indulgence, I Am Blind." "Divine Perceptions Unshackle Power To Dive Within."
4. Chaos - "This Being Is A Vessel. You Cannot Stop Me. I Am Free, I Am Awake And I LOVE."

Лог создания рипа

Exact Audio Copy V1.1 from 23. June 2015
Отчёт EAC об извлечении, выполненном 14. августа 2018, 16:27
Girth / Sleeper, Awaken!
Дисковод: PIONEER DVD-RW DVR-XT11 Adapter: 1 ID: 0
Режим чтения : ДостоверностьИспользование точного потока : ДаОтключение кэша аудио : ДаИспользование указателей C2 : Нет
Коррекция смещения при чтении : 6Способность читать области Lead-in и Lead-out : НетЗаполнение пропущенных сэмплов тишиной : ДаУдаление блоков с тишиной в начале и конце : НетПри вычислениях CRC использовались нулевые сэмплы : ДаИнтерфейс : Встроенный Win32-интерфейс для Win NT/2000
Выходной формат : Пользовательский кодировщикВыбранный битрейт : 128 kBit/sКачество : ВысокийДобавление ID3-тега : НетУтилита сжатия : C:\Program Files (x86)\FLAC\flac.exeДополнительные параметры : -V -8 -T "Date=%year%" -T "Genre=%genre%" %source%
TOC извлечённого CD
Трек | Старт | Длительность | Начальный сектор | Конечный сектор --------------------------------------------------------------------- 1 | 0:00.00 | 3:58.30 | 0 | 17879 2 | 3:58.30 | 4:02.07 | 17880 | 36036 3 | 8:00.37 | 5:38.45 | 36037 | 61431 4 | 13:39.07 | 3:11.46 | 61432 | 75802
Характеристики диапазона извлечения и сообщения об ошибках
Выбранный диапазон
Имя файла F:\Music\Girth\2007 - Sleeper, Awaken!\2007 - Sleeper, Awaken!.wav
Пиковый уровень 99.9 % Скорость извлечения 3.7 X Качество диапазона 100.0 % CRC теста CAE30AC3 CRC копии CAE30AC3 Копирование... OK
Ошибок не произошло
AccurateRip: сводка
Трек 1 отсутствует в базе данныхТрек 2 отсутствует в базе данныхТрек 3 отсутствует в базе данныхТрек 4 отсутствует в базе данных
Ни одного трека нет в базе AccurateRip
Конец отчёта
---- CUETools DB Plugin V2.1.6
[CTDB TOCID: hy.R8u9YF8vO0r70lR3i2zpwtiE-] foundSubmit result: hy.R8u9YF8vO0r70lR3i2zpwtiE- has been confirmedTrack | CTDB Status 1 | (4/4) Accurately ripped 2 | (4/4) Accurately ripped 3 | (4/4) Accurately ripped 4 | (4/4) Accurately ripped
==== Контрольная сумма отчёта 447E647B27E006909610BE777697F79F33A10216FA77A069F8FC2585EFE7D437 ====

Состав

Guitar: Dave Webb
Keyboards: Andrew McInnis
Drums: Peijman Kouretchian
Vocals: B.R.A.D. Mowen


[islamvillage.com]_t_5605553.torrent
Торрент: Зарегистрирован ·  [ 2018-09-02 20:53 ] ·  308f682c1e0f1ab1840e580c8300b186adbed971

21 KB

Статус: проверено
Скачан: 0 раз
Размер: 126 MB
Оценка: 
(Голосов: 0)
Сказали спасибо: 0  Спасибо
Похожие темы
[Профиль]    [ЛС]
Показать сообщения:    
Ответить на тему

Текущее время: Сегодня 23:40

Часовой пояс: GMT + 7



Вы не можете начинать темы
Вы не можете отвечать на сообщения
Вы не можете редактировать свои сообщения
Вы не можете удалять свои сообщения
Вы не можете голосовать в опросах
Вы не можете прикреплять файлы к сообщениям
Вы можете скачивать файлы


Una Familia Espacial | HD The Spy Who Dumped Me | True Detective - The Final Country New episode on Amazon Prime & HBO NOW