(Rock) [CD] БГ (Б.Г., Борис Гребенщиков, Аквариум) - Время N - 2018, ALAC (tracks+.cue), lossless

Ответить на тему
Статистика раздачи [Обновить пиров]
Размер:  244 MB   |    Зарегистрирован:  3 месяца 28 дней   |    Скачан:  0 раз

Полного источника не было: Никогда

 
   
 
 
 
Автор Сообщение

islamvillage.com

Создавать темы 19-Сен-2018 22:36

[Цитировать]

БГ / Время N
[img=right]http://i104.fastpic.ru/big/2018/0712/c6/c2ac9b684e...f5d2c6.jpg[/img]
Жанр: Rock
Носитель: CD
Страна-производитель диска: Россия
Год издания: 2018
Издатель (лейбл): Мистерия Звука
Номер по каталогу: CD-M2+801-1
Страна исполнителя (группы): Россия
Аудио кодек: ALAC (*.m4a)
Тип рипа: tracks+.cue
Программа-конвертер: CueTools (refalac)
Битрейт аудио: lossless
Продолжительность: 00:40:40
Наличие сканов в содержимом раздачи: нет
Тексты: вшиты
Источник
Треклист:
1. Время N
2. Темный Как Ночь
3. Сякухачи
4. На Ржавом Ветру
5. Песни Нелюбимых
6. Ножи Бодхисаттвы
7. Прикуривает От Пустоты
8. Соль
9. Крестовый Поход Птиц

Лог создания рипа

Exact Audio Copy V1.3 from 2. September 2016
Отчёт EAC об извлечении, выполненном 12. июля 2018, 14:09
БГ / Время N
Дисковод: ATAPI iHAS122 C Adapter: 1 ID: 0
Режим чтения : ДостоверностьИспользование точного потока : ДаОтключение кэша аудио : ДаИспользование указателей C2 : Нет
Коррекция смещения при чтении : 6Способность читать области Lead-in и Lead-out : НетЗаполнение пропущенных сэмплов тишиной : ДаУдаление блоков с тишиной в начале и конце : НетПри вычислениях CRC использовались нулевые сэмплы : ДаИнтерфейс : Встроенный Win32-интерфейс для Win NT/2000
Выходной формат : Пользовательский кодировщикВыбранный битрейт : 768 kBit/sКачество : ВысокийДобавление ID3-тега : НетУтилита сжатия : C:\Program Files\Exact Audio Copy\FLAC\FLAC.EXEДополнительные параметры : -6 -V -T "ARTIST=%artist%" -T "TITLE=%title%" -T "ALBUM=%albumtitle%" -T "DATE=%year%" -T "TRACKNUMBER=%tracknr%" -T "GENRE=%genre%" -T "COMMENT=%comment%" -T "BAND=%albuminterpret%" -T "ALBUMARTIST=%albuminterpret%" -T "COMPOSER=%composer%" %haslyrics%--tag-from-file=LYRICS="%lyricsfile%"%haslyrics% -T "DISCNUMBER=%cdnumber%" -T "TOTALDISCS=%totalcds%" -T "TOTALTRACKS=%numtracks%" %hascover%--picture="%coverfile%"%hascover% %source% -o %dest%
TOC извлечённого CD
Трек | Старт | Длительность | Начальный сектор | Конечный сектор --------------------------------------------------------------------- 1 | 0:00.00 | 3:23.20 | 0 | 15244 2 | 3:23.20 | 3:34.41 | 15245 | 31335 3 | 6:57.61 | 5:14.49 | 31336 | 54934 4 | 12:12.35 | 3:01.72 | 54935 | 68581 5 | 15:14.32 | 3:17.17 | 68582 | 83373 6 | 18:31.49 | 4:59.05 | 83374 | 105803 7 | 23:30.54 | 4:33.26 | 105804 | 126304 8 | 28:04.05 | 6:44.20 | 126305 | 156624 9 | 34:48.25 | 5:51.16 | 156625 | 182965
Характеристики диапазона извлечения и сообщения об ошибках
Выбранный диапазон
Имя файла D:\Музыка\БГ - Время N (2018)\БГ - Время N.wav
Пиковый уровень 100.0 % Скорость извлечения 5.5 X Качество диапазона 99.9 % CRC теста 45924060 CRC копии 45924060 Копирование... OK
Ошибок не произошло
AccurateRip: сводка
Трек 1 : извлечено точно (доверие 1) [D221DF44] (AR v2)Трек 2 : извлечено точно (доверие 1) [7C44CF27] (AR v2)Трек 3 : извлечено точно (доверие 1) [E2612BE3] (AR v2)Трек 4 : извлечено точно (доверие 1) [D5E32A62] (AR v2)Трек 5 : извлечено точно (доверие 1) [EDDA5BC3] (AR v2)Трек 6 : извлечено точно (доверие 1) [CEF783C1] (AR v2)Трек 7 : извлечено точно (доверие 1) [41E40C33] (AR v2)Трек 8 : извлечено точно (доверие 1) [A3BA5CD4] (AR v2)Трек 9 : извлечено точно (доверие 1) [823675B9] (AR v2)
Все треки извлечены точно
Конец отчёта
---- CUETools DB Plugin V2.1.6
[CTDB TOCID: kk9oznMSIYFIBubaBmriu4mz6jo-] foundSubmit result: kk9oznMSIYFIBubaBmriu4mz6jo- has been confirmedTrack | CTDB Status 1 | (11/11) Accurately ripped 2 | (11/11) Accurately ripped 3 | (11/11) Accurately ripped 4 | (11/11) Accurately ripped 5 | (11/11) Accurately ripped 6 | (11/11) Accurately ripped 7 | (11/11) Accurately ripped 8 | (11/11) Accurately ripped 9 | (11/11) Accurately ripped

Содержание индексной карты (.CUE)

REM GENRE "Rock"REM DATE 2018REM DISCID 63098709REM COMMENT "ExactAudioCopy v1.3"PERFORMER "БГ"TITLE "Время N"REM DISCNUMBER 1REM TOTALDISCS 1FILE "01. Время N.m4a" WAVE TRACK 01 AUDIO TITLE "Время N" PERFORMER "БГ" INDEX 01 00:00:00FILE "02. Темный Как Ночь.m4a" WAVE TRACK 02 AUDIO TITLE "Темный Как Ночь" PERFORMER "БГ" INDEX 01 00:00:00FILE "03. Сякухачи.m4a" WAVE TRACK 03 AUDIO TITLE "Сякухачи" PERFORMER "БГ" INDEX 01 00:00:00FILE "04. На Ржавом Ветру.m4a" WAVE TRACK 04 AUDIO TITLE "На Ржавом Ветру" PERFORMER "БГ" INDEX 01 00:00:00FILE "05. Песни Нелюбимых.m4a" WAVE TRACK 05 AUDIO TITLE "Песни Нелюбимых" PERFORMER "БГ" INDEX 01 00:00:00FILE "06. Ножи Бодхисаттвы.m4a" WAVE TRACK 06 AUDIO TITLE "Ножи Бодхисаттвы" PERFORMER "БГ" INDEX 01 00:00:00FILE "07. Прикуривает От Пустоты.m4a" WAVE TRACK 07 AUDIO TITLE "Прикуривает От Пустоты" PERFORMER "БГ" INDEX 01 00:00:00FILE "08. Соль.m4a" WAVE TRACK 08 AUDIO TITLE "Соль" PERFORMER "БГ" INDEX 01 00:00:00 TRACK 09 AUDIO TITLE "Крестовый Поход Птиц" PERFORMER "БГ" INDEX 00 06:44:16FILE "09. Крестовый Поход Птиц.m4a" WAVE INDEX 01 00:00:00

Лог проверки качества

-----------------------
DON'T MODIFY THIS FILE
-----------------------
PERFORMER: auCDtect Task Manager, ver. 1.5.1RC6 build 1.5.1.7Copyright (c) 2008-2010 y-soft. All rights reservedhttp://y-soft.org
ANALYZER: auCDtect: CD records authenticity detector, version 0.8.2Copyright (c) 2004 Oleg Berngardt. All rights reserved.Copyright (c) 2004 Alexander Djourik. All rights reserved.
FILE: 09. Крестовый Поход Птиц.m4a Size: 33527290 Hash: AAAB540BFF35024ABDB08F76E11307D5 Accuracy: -m0 Conclusion: CDDA 100% Signature: C6ABC5A444D1130D60A70E6792A191A90D4DF70BFILE: 08. Соль.m4a Size: 46819617 Hash: 7928D582C91D2F99AE09E171B8C267CA Accuracy: -m0 Conclusion: CDDA 99% Signature: 716247BE7A4994261691E5152F54944B04001599FILE: 07. Прикуривает От Пустоты.m4a Size: 25063743 Hash: 38EA804ADC8C7D77DA0AFEAAC64AC931 Accuracy: -m0 Conclusion: CDDA 99% Signature: 28B3E8A6FBEF852F85551CF23A014FCFAD505BE7FILE: 06. Ножи Бодхисаттвы.m4a Size: 34282892 Hash: 55C9B659EC853940C54ADA620B792863 Accuracy: -m0 Conclusion: CDDA 100% Signature: BCFF82ED72CB6C092566CB6B47D66F8DFF5F41DFFILE: 05. Песни Нелюбимых.m4a Size: 18944172 Hash: EB43F91A24A8D9EFC01D0CAA222A74EB Accuracy: -m0 Conclusion: CDDA 100% Signature: 496DC6BFA6F4179FAF557E55436194AC99D0C6A7FILE: 04. На Ржавом Ветру.m4a Size: 21950360 Hash: 48A86D45F15C0B00CEE168489F81F9BD Accuracy: -m0 Conclusion: CDDA 100% Signature: 75E700DD6098E37505DF29517952A1B97537D58FFILE: 03. Сякухачи.m4a Size: 30695920 Hash: 32C07F6EBA39391C99760FC0C9277970 Accuracy: -m0 Conclusion: CDDA 100% Signature: 9F4FB8154933BF5A35877CE3A282BC509FFA3890FILE: 02. Темный Как Ночь.m4a Size: 25722591 Hash: 287D6C3F5D69D9889346CEF43293949F Accuracy: -m0 Conclusion: CDDA 99% Signature: 47DA911247D76491D82ADA5E38B9C64B654F092CFILE: 01. Время N.m4a Size: 18665039 Hash: 8480C5016C72ED72B729388C4A779234 Accuracy: -m0 Conclusion: CDDA 100% Signature: 3A5810F53A1CDB86AD03BE370B9901D7357F89ED

Скриншот(ы) тегов iTunes




[islamvillage.com]_t_5613081.torrent
Торрент: Зарегистрирован ·  [ 2018-09-19 22:35 ] ·  16d78c8d659046cdd65c49b7ed6f6506d1ac3acc

20 KB

Статус: проверено
Скачан: 0 раз
Размер: 244 MB
Оценка: 
(Голосов: 0)
Сказали спасибо: 0  Спасибо
Похожие темы
[Профиль]    [ЛС]
Показать сообщения:    
Ответить на тему

Текущее время: Сегодня 18:10

Часовой пояс: GMT + 7



Вы не можете начинать темы
Вы не можете отвечать на сообщения
Вы не можете редактировать свои сообщения
Вы не можете удалять свои сообщения
Вы не можете голосовать в опросах
Вы не можете прикреплять файлы к сообщениям
Вы можете скачивать файлы


Last Post By: , ago | Education - 539 Words | Educativo