(Rock) [CD] Фёдор Чистяков - Ноль+30! - 2016, ALAC (tracks+.cue), lossless

Ответить на тему
Статистика раздачи [Обновить пиров]
Размер:  362 MB   |    Зарегистрирован:  3 месяца 28 дней   |    Скачан:  0 раз

Полного источника не было: Никогда

 
   
 
 
 
Автор Сообщение

islamvillage.com

Создавать темы 19-Сен-2018 22:36

[Цитировать]

Фёдор Чистяков / Ноль+30!
Жанр: Rock
Носитель: CD
Страна-производитель диска: Russia
Год издания: 2016
Издатель (лейбл): Вектор
Номер по каталогу: VEK-CD-60
Страна исполнителя (группы): Russia
Аудио кодек: ALAC (*.m4a)
Тип рипа: tracks+.cue
Программа-конвертер: Собственный рип (EAC)+foobar (refalac)
Битрейт аудио: lossless
Продолжительность: 00:52:08
Наличие сканов в содержимом раздачи: да
Тексты: вшиты
Треклист:
01. Северное Буги
02. Коммунальные квартиры
03. Радиолюбитель (ft. Алексей Николаев)
04. Я - самолёт
05. Улица Ленина
06. Мы идём пить квас
07. Будет всё хорошо
08. Прости, что не верил
09. Наш день (ft. Алексей Николаев)
10. Уже человек
11. Цикорий
12. Человек и кошка (ft. Татьяна Буланова)

Лог создания рипа

Exact Audio Copy V1.0 beta 1 from 15. November 2010
EAC extraction logfile from 7. September 2018, 12:56
Федор Чистяков / Ноль+30
Used drive : Optiarc DVD RW AD-5260S Adapter: 2 ID: 0
Read mode : SecureUtilize accurate stream : YesDefeat audio cache : YesMake use of C2 pointers : No
Read offset correction : 48Overread into Lead-In and Lead-Out : NoFill up missing offset samples with silence : YesDelete leading and trailing silent blocks : NoNull samples used in CRC calculations : YesUsed interface : Native Win32 interface for Win NT & 2000Gap handling : Appended to previous track
Used output format : Internal WAV RoutinesSample format : 44.100 Hz; 16 Bit; Stereo
TOC of the extracted CD
Track | Start | Length | Start sector | End sector --------------------------------------------------------- 1 | 0:00.00 | 1:28.52 | 0 | 6651 2 | 1:28.52 | 5:45.71 | 6652 | 32597 3 | 7:14.48 | 3:09.64 | 32598 | 46836 4 | 10:24.37 | 6:08.08 | 46837 | 74444 5 | 16:32.45 | 4:45.22 | 74445 | 95841 6 | 21:17.67 | 4:37.08 | 95842 | 116624 7 | 25:55.00 | 6:12.40 | 116625 | 144564 8 | 32:07.40 | 4:41.71 | 144565 | 165710 9 | 36:49.36 | 3:36.36 | 165711 | 181946 10 | 40:25.72 | 3:47.23 | 181947 | 198994 11 | 44:13.20 | 4:02.53 | 198995 | 217197 12 | 48:15.73 | 3:52.16 | 217198 | 234613
Track 1
Filename D:\Temp\01. Северное Буги.wav
Pre-gap length 0:00:02.00
Peak level 94.4 % Extraction speed 2.0 X Track quality 100.0 % Test CRC F7BC5596 Copy CRC F7BC5596 Accurately ripped (confidence 3) [AD31216C] Copy OK
Track 2
Filename D:\Temp\02. Коммунальные квартиры.wav
Pre-gap length 0:00:00.02
Peak level 100.0 % Extraction speed 2.8 X Track quality 100.0 % Test CRC D2D111E6 Copy CRC D2D111E6 Accurately ripped (confidence 3) [5EE9564C] Copy OK
Track 3
Filename D:\Temp\03. Алексей Николаев , Радиолюбитель.wav
Pre-gap length 0:00:00.02
Peak level 100.0 % Extraction speed 2.8 X Track quality 100.0 % Test CRC 747ECF9B Copy CRC 747ECF9B Accurately ripped (confidence 3) [CBA6CD3B] Copy OK
Track 4
Filename D:\Temp\04. Я - самолёт.wav
Pre-gap length 0:00:00.02
Peak level 99.5 % Extraction speed 3.4 X Track quality 100.0 % Test CRC 46D40CA2 Copy CRC 46D40CA2 Accurately ripped (confidence 3) [DFB394C7] Copy OK
Track 5
Filename D:\Temp\05. Улица Ленина.wav
Pre-gap length 0:00:00.02
Peak level 100.0 % Extraction speed 3.6 X Track quality 100.0 % Test CRC CA033D5E Copy CRC CA033D5E Accurately ripped (confidence 3) [2218B41E] Copy OK
Track 6
Filename D:\Temp\06. Мы идём пить квас.wav
Pre-gap length 0:00:00.02
Peak level 100.0 % Extraction speed 3.7 X Track quality 100.0 % Test CRC 9CEAABA6 Copy CRC 9CEAABA6 Accurately ripped (confidence 3) [6D896819] Copy OK
Track 7
Filename D:\Temp\07. Будет всё хорошо.wav
Pre-gap length 0:00:00.02
Peak level 100.0 % Extraction speed 4.1 X Track quality 100.0 % Test CRC 8510D968 Copy CRC 8510D968 Accurately ripped (confidence 3) [92E8FBF6] Copy OK
Track 8
Filename D:\Temp\08. Прости, что не верил.wav
Pre-gap length 0:00:00.02
Peak level 100.0 % Extraction speed 4.2 X Track quality 100.0 % Test CRC 058F17F9 Copy CRC 058F17F9 Accurately ripped (confidence 3) [4E69DFA0] Copy OK
Track 9
Filename D:\Temp\09. Наш день (ft. Алексей Николаев).wav
Pre-gap length 0:00:00.02
Peak level 100.0 % Extraction speed 4.2 X Track quality 100.0 % Test CRC 35F12C13 Copy CRC 35F12C13 Accurately ripped (confidence 3) [F3D60EE4] Copy OK
Track 10
Filename D:\Temp\10. Уже человек.wav
Pre-gap length 0:00:00.02
Peak level 97.2 % Extraction speed 4.4 X Track quality 100.0 % Test CRC F46F2427 Copy CRC F46F2427 Accurately ripped (confidence 3) [BEF4E3C5] Copy OK
Track 11
Filename D:\Temp\11. Цикорий.wav
Pre-gap length 0:00:00.02
Peak level 98.2 % Extraction speed 4.5 X Track quality 100.0 % Test CRC 04F55F4B Copy CRC 04F55F4B Accurately ripped (confidence 3) [D3533A7A] Copy OK
Track 12
Filename D:\Temp\12. Человек и кошка (ft. Татьяна Буланова).wav
Pre-gap length 0:00:00.02
Peak level 94.6 % Extraction speed 4.7 X Track quality 100.0 % Test CRC 3FC671D0 Copy CRC 3FC671D0 Accurately ripped (confidence 3) [45FB0FDC] Copy OK
All tracks accurately ripped
No errors occurred
End of status report
==== Log checksum CE5AA257D1AE412C377584DF68365AF4F152EB68729A6DE252D80BE9583A1F4E ====

Содержание индексной карты (.CUE)

REM GENRE RockREM DATE 2016REM DISCID B70C380CREM COMMENT "ExactAudioCopy v1.0b1"CATALOG 0000415357010PERFORMER "Федор Чистяков"TITLE "Ноль+30"FILE "01. Северное Буги.wav" WAVE TRACK 01 AUDIO TITLE "Северное Буги" PERFORMER "Федор Чистяков" INDEX 01 00:00:00 TRACK 02 AUDIO TITLE "Коммунальные квартиры" PERFORMER "Федор Чистяков" INDEX 00 01:28:50FILE "02. Коммунальные квартиры.wav" WAVE INDEX 01 00:00:00 TRACK 03 AUDIO TITLE "Радиолюбитель (ft. Алексей Николаев)" PERFORMER "Федор Чистяков" INDEX 00 05:45:69FILE "03. Радиолюбитель (ft. Алексей Николаев).wav" WAVE INDEX 01 00:00:00 TRACK 04 AUDIO TITLE "Я - самолёт" PERFORMER "Федор Чистяков" INDEX 00 03:09:62FILE "04. Я - самолёт.wav" WAVE INDEX 01 00:00:00 TRACK 05 AUDIO TITLE "Улица Ленина" PERFORMER "Федор Чистяков" INDEX 00 06:08:06FILE "05. Улица Ленина.wav" WAVE INDEX 01 00:00:00 TRACK 06 AUDIO TITLE "Мы идём пить квас" PERFORMER "Федор Чистяков" INDEX 00 04:45:20FILE "06. Мы идём пить квас.wav" WAVE INDEX 01 00:00:00 TRACK 07 AUDIO TITLE "Будет всё хорошо" PERFORMER "Федор Чистяков" INDEX 00 04:37:06FILE "07. Будет всё хорошо.wav" WAVE INDEX 01 00:00:00 TRACK 08 AUDIO TITLE "Прости, что не верил" PERFORMER "Федор Чистяков" INDEX 00 06:12:38FILE "08. Прости, что не верил.wav" WAVE INDEX 01 00:00:00 TRACK 09 AUDIO TITLE "Наш день (ft. Алексей Николаев)" PERFORMER "Федор Чистяков" INDEX 00 04:41:69FILE "09. Наш день (ft. Алексей Николаев).wav" WAVE INDEX 01 00:00:00 TRACK 10 AUDIO TITLE "Уже человек" PERFORMER "Федор Чистяков" INDEX 00 03:36:34FILE "10. Уже человек.wav" WAVE INDEX 01 00:00:00 TRACK 11 AUDIO TITLE "Цикорий" PERFORMER "Федор Чистяков" INDEX 00 03:47:21FILE "11. Цикорий.wav" WAVE INDEX 01 00:00:00 TRACK 12 AUDIO TITLE "Человек и кошка (ft. Татьяна Буланова)" PERFORMER "Федор Чистяков" INDEX 00 04:02:51FILE "12. Человек и кошка (ft. Татьяна Буланова).wav" WAVE INDEX 01 00:00:00

Лог проверки качества

-----------------------
DON'T MODIFY THIS FILE
-----------------------
PERFORMER: auCDtect Task Manager, ver. 1.5.1RC6 build 1.5.1.7Copyright (c) 2008-2010 y-soft. All rights reservedhttp://y-soft.org
ANALYZER: auCDtect: CD records authenticity detector, version 0.8.2Copyright (c) 2004 Oleg Berngardt. All rights reserved.Copyright (c) 2004 Alexander Djourik. All rights reserved.
FILE: 12. Человек и кошка (ft. Татьяна Буланова).m4a Size: 26051869 Hash: CF2BC24959E2E8287B07B090F8A29F60 Accuracy: -m0 Conclusion: CDDA 100% Signature: 5919CDDC5A71A35FC220945CE44E0B7E2ABE7DCCFILE: 11. Цикорий.m4a Size: 29232891 Hash: 7AB4B717FA7B61F5BF431F18B47BC432 Accuracy: -m0 Conclusion: CDDA 100% Signature: 7818730E35EC907BCEE6FFD7044AF557B3647F5FFILE: 10. Уже человек.m4a Size: 27583311 Hash: 3788209583CFCFF8A84B340841A14E2F Accuracy: -m0 Conclusion: CDDA 100% Signature: 0B4BE58D6D5648F70E2A0BC9D0BB909ED58C3806FILE: 09. Наш день (ft. Алексей Николаев).m4a Size: 26154319 Hash: AB03ABC6ED84326DBC2708F50F0EF79C Accuracy: -m0 Conclusion: CDDA 100% Signature: 4EC08813587839BB4874E4E822E2150B304805CBFILE: 08. Прости, что не верил.m4a Size: 34134031 Hash: C799DD36BA60E8E1D4F72FC07C5B581D Accuracy: -m0 Conclusion: CDDA 100% Signature: EA5D600DC49ECC679247C0EF7890296E81E583E5FILE: 07. Будет всё хорошо.m4a Size: 40823845 Hash: 56508610E4AD2337399B7A0A28768D88 Accuracy: -m0 Conclusion: CDDA 100% Signature: 0CF9BAE7D9DEDB7BA404FE14AE183B9B1827E9E3FILE: 06. Мы идём пить квас.m4a Size: 34153236 Hash: 5C692327CB525D1E0364C2745257A371 Accuracy: -m0 Conclusion: CDDA 100% Signature: D7627A6CBF49D5374AF7C0A4BBA8C59EA486EA54FILE: 05. Улица Ленина.m4a Size: 33444782 Hash: 9A9E2D662D01BEB76AC4E71CF8BEC43A Accuracy: -m0 Conclusion: CDDA 100% Signature: 04D8A356F3B49AE8C0FF8CADD12E1C4119BAE47AFILE: 04. Я - самолёт.m4a Size: 39385887 Hash: DD326E189AAEA931191D73C5271B0EFA Accuracy: -m0 Conclusion: CDDA 100% Signature: 79AE44E772E6A08273AA95626E75BB5B635D4BA3FILE: 03. Радиолюбитель (ft. Алексей Николаев).m4a Size: 25973185 Hash: B48EC25EAAEF823B802C2851C0391807 Accuracy: -m0 Conclusion: CDDA 100% Signature: 4D6FA0263C24A8E9A7A3AA4799877BCA83A00FA8FILE: 02. Коммунальные квартиры.m4a Size: 42308419 Hash: 63DAE307B65FDB4E63563ADF5AC7D6BB Accuracy: -m0 Conclusion: CDDA 100% Signature: 7845CA620D09816FFA203E15687CEAE88D7AD49EFILE: 01. Северное Буги.m4a Size: 8807530 Hash: 88C89CD6106F8CDA66BF0D715C121888 Accuracy: -m0 Conclusion: CDDA 99% Signature: 363796CC3B478774FDF911C8223DC8DA753BE9A1

Скриншот(ы) тегов iTunes




[islamvillage.com]_t_5610579.torrent
Торрент: Зарегистрирован ·  [ 2018-09-19 22:35 ] ·  35a02095408ba60e062aecbec710d59a0411e896

16 KB

Статус: проверено
Скачан: 0 раз
Размер: 362 MB
Оценка: 
(Голосов: 0)
Сказали спасибо: 0  Спасибо
Похожие темы
[Профиль]    [ЛС]
Показать сообщения:    
Ответить на тему

Текущее время: Сегодня 19:15

Часовой пояс: GMT + 7



Вы не можете начинать темы
Вы не можете отвечать на сообщения
Вы не можете редактировать свои сообщения
Вы не можете удалять свои сообщения
Вы не можете голосовать в опросах
Вы не можете прикреплять файлы к сообщениям
Вы можете скачивать файлы


Court métrage | ATV Kinderquad MIDI Kinder Quad ATV S-5 Polari Style 125cc | Magnum, P.i.: Season ...