(Rock) [CD] The Beatles - 20 Greatest Hits (Dr. Ebbetts UK Stereo 2008) - 1982, ALAC (tracks+.cue), lossless

Ответить на тему
Статистика раздачи [Обновить пиров]
Размер:  373 MB   |    Зарегистрирован:  4 месяца 3 дня   |    Скачан:  0 раз

Полного источника не было: Никогда

 
   
 
 
 
Автор Сообщение

islamvillage.com

Создавать темы 17-Окт-2018 22:49

[Цитировать]

The Beatles / 20 Greatest Hits
Жанр: Rock
Носитель: CD
Страна-производитель диска: UK
Год издания: 1982
Издатель (лейбл): Parlophone
Номер по каталогу: PCTC 260
Страна исполнителя (группы): UK
Аудио кодек: ALAC (*.m4a)
Тип рипа: tracks+.cue
Программа-конвертер: Собственный рип (EAC)+foobar (refalac)
Битрейт аудио: lossless
Продолжительность: 00:56:04
Наличие сканов в содержимом раздачи: да
Тексты: вшиты
Треклист:
01. Love Me Do (2:21)
02. From Me To You (1:56)
03. She Loves You (2:20)
04. I Want To Hold Your Hand (2:25)
05. Can't Buy Me Love (2:11)
06. A Hard Day's Night (2:32)
07. I Feel Fine (2:19)
08. Ticket To Ride (3:07)
09. Help! (2:18)
10. Day Tripper (2:48)
11. We Can Work It Out (2:13)
12. Paperback Writer (2:16)
13. Yellow Submarine (2:36)
14. Eleanor Rigby (2:04)
15. All You Need Is Love (3:46)
16. Hello Goodbye (3:25)
17. Lady Madonna (2:15)
18. Hey Jude (7:05)
19. Get Back (3:09)
20. The Ballad Of John And Yoko (2:59)

Лог создания рипа

Exact Audio Copy V1.0 beta 1 from 15. November 2010
EAC extraction logfile from 4. October 2018, 16:35
The Beatles / 20 Greatest Hits (Parlophone)
Used drive : Optiarc DVD RW AD-5260S Adapter: 2 ID: 0
Read mode : SecureUtilize accurate stream : YesDefeat audio cache : YesMake use of C2 pointers : No
Read offset correction : 48Overread into Lead-In and Lead-Out : NoFill up missing offset samples with silence : YesDelete leading and trailing silent blocks : NoNull samples used in CRC calculations : YesUsed interface : Native Win32 interface for Win NT & 2000Gap handling : Appended to previous track
Used output format : Internal WAV RoutinesSample format : 44.100 Hz; 16 Bit; Stereo
TOC of the extracted CD
Track | Start | Length | Start sector | End sector --------------------------------------------------------- 1 | 0:00.00 | 2:20.69 | 0 | 10568 2 | 2:20.69 | 1:56.35 | 10569 | 19303 3 | 4:17.29 | 2:19.74 | 19304 | 29802 4 | 6:37.28 | 2:24.67 | 29803 | 40669 5 | 9:02.20 | 2:10.41 | 40670 | 50460 6 | 11:12.61 | 2:32.09 | 50461 | 61869 7 | 13:44.70 | 2:18.42 | 61870 | 72261 8 | 16:03.37 | 3:06.52 | 72262 | 86263 9 | 19:10.14 | 2:17.38 | 86264 | 96576 10 | 21:27.52 | 2:48.19 | 96577 | 109195 11 | 24:15.71 | 2:13.17 | 109196 | 119187 12 | 26:29.13 | 2:15.74 | 119188 | 129386 13 | 28:45.12 | 2:35.44 | 129387 | 141055 14 | 31:20.56 | 2:04.30 | 141056 | 150385 15 | 33:25.11 | 3:45.46 | 150386 | 167306 16 | 37:10.57 | 3:24.72 | 167307 | 182678 17 | 40:35.54 | 2:15.05 | 182679 | 192808 18 | 42:50.59 | 7:04.63 | 192809 | 224671 19 | 49:55.47 | 3:09.33 | 224672 | 238879 20 | 53:05.05 | 2:58.71 | 238880 | 252300
Track 1
Filename D:\Temp\01. Love Me Do.wav
Pre-gap length 0:00:02.00
Peak level 92.6 % Extraction speed 2.3 X Track quality 100.0 % Test CRC 9128EA2A Copy CRC 9128EA2A Accurately ripped (confidence 1) [64254493] Copy OK
Track 2
Filename D:\Temp\02. From Me To You.wav
Peak level 98.9 % Extraction speed 2.3 X Track quality 100.0 % Test CRC AF5242F4 Copy CRC AF5242F4 Accurately ripped (confidence 1) [90220844] Copy OK
Track 3
Filename D:\Temp\03. She Loves You.wav
Peak level 99.5 % Extraction speed 2.5 X Track quality 100.0 % Test CRC 751E4E74 Copy CRC 751E4E74 Accurately ripped (confidence 1) [A4088FB6] Copy OK
Track 4
Filename D:\Temp\04. I Want To Hold Your Hand.wav
Peak level 88.1 % Extraction speed 2.7 X Track quality 100.0 % Test CRC 21B78E83 Copy CRC 21B78E83 Accurately ripped (confidence 1) [9BEBFD43] Copy OK
Track 5
Filename D:\Temp\05. Can't Buy Me Love.wav
Peak level 98.9 % Extraction speed 2.7 X Track quality 100.0 % Test CRC 19A1D187 Copy CRC 19A1D187 Accurately ripped (confidence 1) [0FE48641] Copy OK
Track 6
Filename D:\Temp\06. A Hard Day's Night.wav
Peak level 99.3 % Extraction speed 2.9 X Track quality 100.0 % Test CRC 9D8BA534 Copy CRC 9D8BA534 Accurately ripped (confidence 1) [E01CA801] Copy OK
Track 7
Filename D:\Temp\07. I Feel Fine.wav
Peak level 98.9 % Extraction speed 3.0 X Track quality 100.0 % Test CRC A4085F47 Copy CRC A4085F47 Accurately ripped (confidence 1) [616D0068] Copy OK
Track 8
Filename D:\Temp\08. Ticket To Ride.wav
Peak level 98.6 % Extraction speed 3.3 X Track quality 100.0 % Test CRC EB04926E Copy CRC EB04926E Accurately ripped (confidence 1) [42D0711B] Copy OK
Track 9
Filename D:\Temp\09. Help!.wav
Peak level 98.7 % Extraction speed 3.1 X Track quality 100.0 % Test CRC 59F826E2 Copy CRC 59F826E2 Accurately ripped (confidence 1) [DA9AB8D7] Copy OK
Track 10
Filename D:\Temp\10. Day Tripper.wav
Peak level 100.0 % Extraction speed 3.3 X Track quality 100.0 % Test CRC F92B3DBD Copy CRC F92B3DBD Accurately ripped (confidence 1) [379597C6] Copy OK
Track 11
Filename D:\Temp\11. We Can Work It Out.wav
Peak level 98.9 % Extraction speed 3.3 X Track quality 100.0 % Test CRC 5FE71804 Copy CRC 5FE71804 Accurately ripped (confidence 1) [88F8677F] Copy OK
Track 12
Filename D:\Temp\12. Paperback Writer.wav
Peak level 95.8 % Extraction speed 3.4 X Track quality 100.0 % Test CRC AB75D200 Copy CRC AB75D200 Accurately ripped (confidence 1) [B524058E] Copy OK
Track 13
Filename D:\Temp\13. Yellow Submarine.wav
Peak level 98.8 % Extraction speed 3.6 X Track quality 100.0 % Test CRC BDF8224B Copy CRC BDF8224B Accurately ripped (confidence 1) [43B35955] Copy OK
Track 14
Filename D:\Temp\14. Eleanor Rigby.wav
Peak level 84.1 % Extraction speed 3.5 X Track quality 100.0 % Test CRC 02C02A2F Copy CRC 02C02A2F Accurately ripped (confidence 1) [D08FD5AA] Copy OK
Track 15
Filename D:\Temp\15. All You Need Is Love.wav
Peak level 97.4 % Extraction speed 4.1 X Track quality 100.0 % Test CRC DE2C701E Copy CRC DE2C701E Accurately ripped (confidence 1) [4FD37B61] Copy OK
Track 16
Filename D:\Temp\16. Hello, Goodbye.wav
Peak level 99.0 % Extraction speed 4.2 X Track quality 100.0 % Test CRC FC6FC3E0 Copy CRC FC6FC3E0 Accurately ripped (confidence 1) [78D8BB51] Copy OK
Track 17
Filename D:\Temp\17. Lady Madonna.wav
Peak level 91.7 % Extraction speed 3.9 X Track quality 100.0 % Test CRC 11FA8336 Copy CRC 11FA8336 Accurately ripped (confidence 1) [D32EE6FA] Copy OK
Track 18
Filename D:\Temp\18. Hey Jude.wav
Peak level 99.3 % Extraction speed 4.9 X Track quality 100.0 % Test CRC 00F06FA0 Copy CRC 00F06FA0 Accurately ripped (confidence 1) [64457E49] Copy OK
Track 19
Filename D:\Temp\19. Get Back.wav
Peak level 97.1 % Extraction speed 4.5 X Track quality 100.0 % Test CRC AD8A9A73 Copy CRC AD8A9A73 Accurately ripped (confidence 1) [33D87EDC] Copy OK
Track 20
Filename D:\Temp\20. The Ballad of John and Yoko.wav
Peak level 98.0 % Extraction speed 4.6 X Track quality 100.0 % Test CRC 03635724 Copy CRC 03635724 Accurately ripped (confidence 1) [E6531887] Copy OK
All tracks accurately ripped
No errors occurred
End of status report
==== Log checksum 5CD45BDFD3088B4BEAC05F2443541C96A73273DDF3816DC6541107A560EE00C1 ====

Содержание индексной карты (.CUE)

REM GENRE BeatREM DATE 1982REM DISCID 330D2414REM COMMENT "ExactAudioCopy v1.0b1"CATALOG 0000297725010PERFORMER "The Beatles"TITLE "20 Greatest Hits"FILE "01. Love Me Do.wav" WAVE TRACK 01 AUDIO TITLE "Love Me Do" PERFORMER "The Beatles" INDEX 01 00:00:00FILE "02. From Me To You.wav" WAVE TRACK 02 AUDIO TITLE "From Me To You" PERFORMER "The Beatles" INDEX 01 00:00:00FILE "03. She Loves You.wav" WAVE TRACK 03 AUDIO TITLE "She Loves You" PERFORMER "The Beatles" INDEX 01 00:00:00FILE "04. I Want To Hold Your Hand.wav" WAVE TRACK 04 AUDIO TITLE "I Want To Hold Your Hand" PERFORMER "The Beatles" INDEX 01 00:00:00FILE "05. Can't Buy Me Love.wav" WAVE TRACK 05 AUDIO TITLE "Can't Buy Me Love" PERFORMER "The Beatles" INDEX 01 00:00:00FILE "06. A Hard Day's Night.wav" WAVE TRACK 06 AUDIO TITLE "A Hard Day's Night" PERFORMER "The Beatles" INDEX 01 00:00:00FILE "07. I Feel Fine.wav" WAVE TRACK 07 AUDIO TITLE "I Feel Fine" PERFORMER "The Beatles" INDEX 01 00:00:00FILE "08. Ticket To Ride.wav" WAVE TRACK 08 AUDIO TITLE "Ticket To Ride" PERFORMER "The Beatles" INDEX 01 00:00:00FILE "09. Help!.wav" WAVE TRACK 09 AUDIO TITLE "Help!" PERFORMER "The Beatles" INDEX 01 00:00:00FILE "10. Day Tripper.wav" WAVE TRACK 10 AUDIO TITLE "Day Tripper" PERFORMER "The Beatles" INDEX 01 00:00:00FILE "11. We Can Work It Out.wav" WAVE TRACK 11 AUDIO TITLE "We Can Work It Out" PERFORMER "The Beatles" INDEX 01 00:00:00FILE "12. Paperback Writer.wav" WAVE TRACK 12 AUDIO TITLE "Paperback Writer" PERFORMER "The Beatles" INDEX 01 00:00:00FILE "13. Yellow Submarine.wav" WAVE TRACK 13 AUDIO TITLE "Yellow Submarine" PERFORMER "The Beatles" INDEX 01 00:00:00FILE "14. Eleanor Rigby.wav" WAVE TRACK 14 AUDIO TITLE "Eleanor Rigby" PERFORMER "The Beatles" INDEX 01 00:00:00FILE "15. All You Need Is Love.wav" WAVE TRACK 15 AUDIO TITLE "All You Need Is Love" PERFORMER "The Beatles" INDEX 01 00:00:00FILE "16. Hello, Goodbye.wav" WAVE TRACK 16 AUDIO TITLE "Hello, Goodbye" PERFORMER "The Beatles" INDEX 01 00:00:00FILE "17. Lady Madonna.wav" WAVE TRACK 17 AUDIO TITLE "Lady Madonna" PERFORMER "The Beatles" INDEX 01 00:00:00FILE "18. Hey Jude.wav" WAVE TRACK 18 AUDIO TITLE "Hey Jude" PERFORMER "The Beatles" INDEX 01 00:00:00FILE "19. Get Back.wav" WAVE TRACK 19 AUDIO TITLE "Get Back" PERFORMER "The Beatles" INDEX 01 00:00:00FILE "20. The Ballad of John and Yoko.wav" WAVE TRACK 20 AUDIO TITLE "The Ballad of John and Yoko" PERFORMER "The Beatles" INDEX 01 00:00:00

Лог проверки качества

-----------------------
DON'T MODIFY THIS FILE
-----------------------
PERFORMER: auCDtect Task Manager, ver. 1.5.1RC6 build 1.5.1.7Copyright (c) 2008-2010 y-soft. All rights reservedhttp://y-soft.org
ANALYZER: auCDtect: CD records authenticity detector, version 0.8.2Copyright (c) 2004 Oleg Berngardt. All rights reserved.Copyright (c) 2004 Alexander Djourik. All rights reserved.
FILE: 20. The Ballad of John and Yoko.m4a Size: 20660774 Hash: 392809A7213EF9541B8509767317FDB5 Accuracy: -m0 Conclusion: CDDA 100% Signature: 5FEC457E799FE8DDE17312916BA75A2D67263FD4FILE: 19. Get Back.m4a Size: 19709623 Hash: 4CD0E84E70327607D48B03DA6412B8B7 Accuracy: -m0 Conclusion: CDDA 100% Signature: 75382003F98240255AEED5108A67E2398E2C295CFILE: 18. Hey Jude.m4a Size: 49614186 Hash: 6C3BED17FE47ED4B56C339CDC0BF3450 Accuracy: -m0 Conclusion: CDDA 99% Signature: 14E09B4214F90A0468235BF9F7CCD8F885E470FBFILE: 17. Lady Madonna.m4a Size: 16084709 Hash: 8D2777870324948CE9FE7F5FF9D92F4C Accuracy: -m0 Conclusion: CDDA 100% Signature: 51EAEEE0A2592F8E0A96EB6459C630705414878EFILE: 16. Hello, Goodbye.m4a Size: 24686629 Hash: 3BAC77A588FBFD8811A644C1E4970648 Accuracy: -m0 Conclusion: CDDA 100% Signature: F633ED106AE6DCDA5C484AB036AA00E24E9AC98BFILE: 15. All You Need Is Love.m4a Size: 24413959 Hash: 2BB576C10B4289996A521D6B434536AA Accuracy: -m0 Conclusion: CDDA 100% Signature: DB9ECF100F1BFC18FB351C58A168ACF042429DFDFILE: 14. Eleanor Rigby.m4a Size: 12999756 Hash: EDAD2D3B6D190EE8F5DFBA839936C631 Accuracy: -m0 Conclusion: CDDA 100% Signature: DBA6EE03667B02A7FB5AD9D05B130C935E70E6E3FILE: 13. Yellow Submarine.m4a Size: 16437083 Hash: 7264C9B1D2DCC623DC6C63054D06FD36 Accuracy: -m0 Conclusion: CDDA 100% Signature: CF3266B05544B8DE6480A620EF55EE48B93BC52EFILE: 12. Paperback Writer.m4a Size: 15400411 Hash: 9ABF7658154D2E069A2DCAFA614F8B72 Accuracy: -m0 Conclusion: CDDA 100% Signature: 065077EC7E0B8137E50DA9D354F0D22B50799B20FILE: 11. We Can Work It Out.m4a Size: 16393870 Hash: D7727B8C150B16C35E6882AB8B38A74E Accuracy: -m0 Conclusion: CDDA 99% Signature: AEF9384A1BEAEC252DE2563CCD4AAFCB6D436DB3FILE: 10. Day Tripper.m4a Size: 19489431 Hash: 768F451D24B9154DC08C575FB145FA7A Accuracy: -m0 Conclusion: CDDA 100% Signature: DF0171C796C6ED3841554BD8AE4DC54B7DE545F2FILE: 09. Help!.m4a Size: 16723940 Hash: 8778FD37C63F163BC17144FC979D93A0 Accuracy: -m0 Conclusion: CDDA 100% Signature: 5A3BE20FE553A40FA003D6D9C387B368D0AAF68CFILE: 08. Ticket To Ride.m4a Size: 22570884 Hash: EFD2F35F375B3DA4D31C3043B80C33ED Accuracy: -m0 Conclusion: CDDA 100% Signature: 13E7A9D394D2E71D02AC8E94536E2D2DFDD78C0DFILE: 07. I Feel Fine.m4a Size: 15810840 Hash: BD67654978653DBF995F666620E519EA Accuracy: -m0 Conclusion: CDDA 100% Signature: C3DA8495F7CA2D206C8BA83B3C6BB2558D729527FILE: 06. A Hard Day's Night.m4a Size: 19530315 Hash: 8E72D9DAD3128D37B3DDDF880036F6A3 Accuracy: -m0 Conclusion: CDDA 100% Signature: B8F6B22A53589B06B15430A4586540B5C25FCFBFFILE: 05. Can't Buy Me Love.m4a Size: 15402019 Hash: 97CC773654ECFC2587C62895FF9717FF Accuracy: -m0 Conclusion: CDDA 100% Signature: A1A421B080657BADA2A3D1322CCF3E334B6E8B16FILE: 04. I Want To Hold Your Hand.m4a Size: 17350457 Hash: 4700D8A1ADA90A17A13A79039EC548BF Accuracy: -m0 Conclusion: CDDA 100% Signature: 3FB600F8FA14BE506EA78CE4962EE3667035BA4BFILE: 03. She Loves You.m4a Size: 16435027 Hash: F11767AEE6713C2136C346B34F1D5300 Accuracy: -m0 Conclusion: CDDA 100% Signature: D3BF7C6BFEA79EBBD2F81544DF7E1EE541BA4C9BFILE: 02. From Me To You.m4a Size: 13532834 Hash: AF4A07C974094A9AB51D2AA041AEFB5F Accuracy: -m0 Conclusion: CDDA 100% Signature: 49A918B90A8D8E9EF88DDB92CE9C0E95F108B2EBFILE: 01. Love Me Do.m4a Size: 16367700 Hash: 3D9DD95C14C66AFA4F420098F4113E60 Accuracy: -m0 Conclusion: CDDA 100% Signature: D5666460DC205200A453B4BE48D43C37628B2F01

Скриншот(ы) тегов iTunes




[islamvillage.com]_t_5628933.torrent
Торрент: Зарегистрирован ·  [ 2018-10-17 22:49 ] ·  c558392355f914c57ad3c69bb7d8ba277138fb59

17 KB

Статус: проверено
Скачан: 0 раз
Размер: 373 MB
Оценка: 
(Голосов: 0)
Сказали спасибо: 0  Спасибо
Похожие темы
[Профиль]    [ЛС]
Показать сообщения:    
Ответить на тему

Текущее время: Сегодня 19:07

Часовой пояс: GMT + 7



Вы не можете начинать темы
Вы не можете отвечать на сообщения
Вы не можете редактировать свои сообщения
Вы не можете удалять свои сообщения
Вы не можете голосовать в опросах
Вы не можете прикреплять файлы к сообщениям
Вы можете скачивать файлы


Download ringtone | pubg mobile lite | 1x10 Tokyo Vampire Hotel