(Rap) [CD] Лигалайз - Молодой король - 2018, ALAC (tracks+.cue), lossless

Ответить на тему
Статистика раздачи [Обновить пиров]
Размер:  384 MB   |    Зарегистрирован:  3 месяца   |    Скачан:  1 раз

Полного источника не было: 2 месяца 28 дней

 
   
 
 
 
Автор Сообщение

islamvillage.com

Создавать темы 17-Окт-2018 22:50

[Цитировать]

Лигалайз / Молодой король
Жанр: Rap
Носитель: CD
Страна-производитель диска: Россия
Год издания: 2018
Издатель (лейбл): Navigator Records
Номер по каталогу: NR 1318 CDp
Страна исполнителя (группы): Россия
Аудио кодек: ALAC (*.m4a)
Тип рипа: tracks+.cue
Программа-конвертер: Собственный рип (EAC)
Битрейт аудио: lossless
Продолжительность: 00:39:17
Наличие сканов в содержимом раздачи: да
Тексты: вшиты
Источник : Собственный диск
Треклист:
01. Маклауд
02. Не верь хайпу!
03. Молодой король
04. Проклятый рэп!
05. Московский бум
06. Бандит
07. Вселенной
08. Один
09. Океан
10. Двое

Лог создания рипа

Exact Audio Copy V1.3 from 2. September 2016
Отчёт EAC об извлечении, выполненном 11. октября 2018, 17:11
Лигалайз / Молодой король
Дисковод: HL-DT-STDVDRAM GP60NB50 Adapter: 1 ID: 0
Режим чтения : ДостоверностьИспользование точного потока : ДаОтключение кэша аудио : ДаИспользование указателей C2 : Нет
Коррекция смещения при чтении : 6Способность читать области Lead-in и Lead-out : НетЗаполнение пропущенных сэмплов тишиной : ДаУдаление блоков с тишиной в начале и конце : НетПри вычислениях CRC использовались нулевые сэмплы : ДаИнтерфейс : Встроенный Win32-интерфейс для Win NT/2000Обработка зазоров : Добавлено к предыдущему треку
Выходной формат : Пользовательский кодировщикВыбранный битрейт : 128 kBit/sКачество : ВысокийДобавление ID3-тега : НетУтилита сжатия : C:\Users\Антон\Downloads\qaac_2.66\qaac_2.66\x64\refalac64.exeДополнительные параметры : -s --ignorelength --artist "%artist%" --title "%title%" --album "%albumtitle%" --date "%year%" --track "%tracknr%" --genre "%genre%" -o %dest% %source%
TOC извлечённого CD
Трек | Старт | Длительность | Начальный сектор | Конечный сектор --------------------------------------------------------------------- 1 | 0:00.00 | 5:02.70 | 0 | 22719 2 | 5:02.70 | 3:56.61 | 22720 | 40480 3 | 8:59.56 | 4:28.31 | 40481 | 60611 4 | 13:28.12 | 2:40.15 | 60612 | 72626 5 | 16:08.27 | 3:49.74 | 72627 | 89875 6 | 19:58.26 | 4:29.60 | 89876 | 110110 7 | 24:28.11 | 3:43.27 | 110111 | 126862 8 | 28:11.38 | 2:30.58 | 126863 | 138170 9 | 30:42.21 | 4:17.57 | 138171 | 157502 10 | 35:00.03 | 4:16.61 | 157503 | 176763
Трек 1
Имя файла C:\Users\Антон\Downloads\Музыка\Лигалайз - Молодой король (2018)\01 Маклауд.wav
Длина предзазора 0:00:02.00
Пиковый уровень 100.0 % Скорость извлечения 1.3 X Качество трека 100.0 % CRC теста 8E5176B8 CRC копии 8E5176B8 Трек не обнаружен в базе AccurateRip Копирование... OK
Трек 2
Имя файла C:\Users\Антон\Downloads\Музыка\Лигалайз - Молодой король (2018)\02 Не верь хайпу!.wav
Пиковый уровень 100.0 % Скорость извлечения 1.4 X Качество трека 100.0 % CRC теста 4E2049C4 CRC копии 4E2049C4 Трек не обнаружен в базе AccurateRip Копирование... OK
Трек 3
Имя файла C:\Users\Антон\Downloads\Музыка\Лигалайз - Молодой король (2018)\03 Молодой король.wav
Пиковый уровень 100.0 % Скорость извлечения 1.6 X Качество трека 100.0 % CRC теста AC609F8A CRC копии AC609F8A Трек не обнаружен в базе AccurateRip Копирование... OK
Трек 4
Имя файла C:\Users\Антон\Downloads\Музыка\Лигалайз - Молодой король (2018)\04 Проклятый рэп!.wav
Пиковый уровень 100.0 % Скорость извлечения 1.5 X Качество трека 100.0 % CRC теста C9FE5C75 CRC копии C9FE5C75 Трек не обнаружен в базе AccurateRip Копирование... OK
Трек 5
Имя файла C:\Users\Антон\Downloads\Музыка\Лигалайз - Молодой король (2018)\05 Московский бум.wav
Пиковый уровень 100.0 % Скорость извлечения 1.7 X Качество трека 100.0 % CRC теста B290072D CRC копии B290072D Трек не обнаружен в базе AccurateRip Копирование... OK
Трек 6
Имя файла C:\Users\Антон\Downloads\Музыка\Лигалайз - Молодой король (2018)\06 Бандит.wav
Пиковый уровень 100.0 % Скорость извлечения 1.8 X Качество трека 100.0 % CRC теста 46B2E6B6 CRC копии 46B2E6B6 Трек не обнаружен в базе AccurateRip Копирование... OK
Трек 7
Имя файла C:\Users\Антон\Downloads\Музыка\Лигалайз - Молодой король (2018)\07 Вселенной.wav
Пиковый уровень 100.0 % Скорость извлечения 1.8 X Качество трека 100.0 % CRC теста 14E5875E CRC копии 14E5875E Трек не обнаружен в базе AccurateRip Копирование... OK
Трек 8
Имя файла C:\Users\Антон\Downloads\Музыка\Лигалайз - Молодой король (2018)\08 Один.wav
Пиковый уровень 100.0 % Скорость извлечения 1.8 X Качество трека 100.0 % CRC теста 0A92EC38 CRC копии 0A92EC38 Трек не обнаружен в базе AccurateRip Копирование... OK
Трек 9
Имя файла C:\Users\Антон\Downloads\Музыка\Лигалайз - Молодой король (2018)\09 Океан.wav
Пиковый уровень 100.0 % Скорость извлечения 2.0 X Качество трека 100.0 % CRC теста 709CF19A CRC копии 709CF19A Трек не обнаружен в базе AccurateRip Копирование... OK
Трек 10
Имя файла C:\Users\Антон\Downloads\Музыка\Лигалайз - Молодой король (2018)\10 Двое.wav
Пиковый уровень 100.0 % Скорость извлечения 2.1 X Качество трека 100.0 % CRC теста E06E0A15 CRC копии E06E0A15 Трек не обнаружен в базе AccurateRip Копирование... OK
Ни одного трека нет в базе AccurateRip
Ошибок не произошло
Конец отчёта
---- CUETools DB Plugin V2.1.6
[CTDB TOCID: CnKvlCLT.GuBFBiIeQNkH1jS420-] disk not present in databaseSubmit result: CnKvlCLT.GuBFBiIeQNkH1jS420- has been uploaded
==== Контрольная сумма отчёта 8EACBF942BDB1834A851880F6EDAF0D17F55BDE4BFB8D0FEC481C4DE8F71B3D0 ====

Содержание индексной карты (.CUE)

REM GENRE RapREM DATE 2018REM DISCID 6409340AREM COMMENT "ExactAudioCopy v1.3"PERFORMER "Лигалайз"TITLE "Молодой король"REM COMPOSER ""FILE "01 Маклауд.wav" WAVE TRACK 01 AUDIO TITLE "Маклауд" PERFORMER "Лигалайз" REM COMPOSER "" ISRC RUB311801301 INDEX 01 00:00:00FILE "02 Не верь хайпу!.wav" WAVE TRACK 02 AUDIO TITLE "Не верь хайпу!" PERFORMER "Лигалайз" REM COMPOSER "" ISRC RUB311801302 INDEX 01 00:00:00FILE "03 Молодой король.wav" WAVE TRACK 03 AUDIO TITLE "Молодой король" PERFORMER "Лигалайз" REM COMPOSER "" ISRC RUB311801303 INDEX 01 00:00:00FILE "04 Проклятый рэп!.wav" WAVE TRACK 04 AUDIO TITLE "Проклятый рэп!" PERFORMER "Лигалайз" REM COMPOSER "" ISRC RUB311801304 INDEX 01 00:00:00FILE "05 Московский бум.wav" WAVE TRACK 05 AUDIO TITLE "Московский бум" PERFORMER "Лигалайз" REM COMPOSER "" ISRC RUB311801305 INDEX 01 00:00:00FILE "06 Бандит.wav" WAVE TRACK 06 AUDIO TITLE "Бандит" PERFORMER "Лигалайз" REM COMPOSER "" ISRC RUB311801306 INDEX 01 00:00:00FILE "07 Вселенной.wav" WAVE TRACK 07 AUDIO TITLE "Вселенной" PERFORMER "Лигалайз" REM COMPOSER "" ISRC RUB311801307 INDEX 01 00:00:00FILE "08 Один.wav" WAVE TRACK 08 AUDIO TITLE "Один" PERFORMER "Лигалайз" REM COMPOSER "" ISRC RUB311801308 INDEX 01 00:00:00FILE "09 Океан.wav" WAVE TRACK 09 AUDIO TITLE "Океан" PERFORMER "Лигалайз" REM COMPOSER "" ISRC RUB311801309 INDEX 01 00:00:00FILE "10 Двое.wav" WAVE TRACK 10 AUDIO TITLE "Двое" PERFORMER "Лигалайз" REM COMPOSER "" ISRC RUB311801310 INDEX 01 00:00:00

Лог проверки качества

CUE Corrector v. 8.3.4 / b. 878 (Oct. 07, 2018)————————————————————————————————————————————————————————————————————————--- / Молодой король
Folder: Лигалайз - Молодой король (2018)Audio files: 01 Маклауд.m4a [05:02.933; ALAC • 852 kbps • 16 bit \ 44100 Hz • stereo; 30.81 MB (32 301 747 B)] 02 Не верь хайпу!.m4a [03:56.813; ALAC • 952 kbps • 16 bit \ 44100 Hz • stereo; 26.90 MB (28 208 804 B)] 03 Молодой король.m4a [04:28.413; ALAC • 987 kbps • 16 bit \ 44100 Hz • stereo; 31.63 MB (33 162 996 B)] 04 Проклятый рэп!.m4a [02:40.200; ALAC • 891 kbps • 16 bit \ 44100 Hz • stereo; 17.04 MB (17 865 470 B)] 05 Московский бум.m4a [03:49.987; ALAC • 863 kbps • 16 bit \ 44100 Hz • stereo; 23.68 MB (24 828 830 B)] 06 Бандит.m4a [04:29.800; ALAC • 889 kbps • 16 bit \ 44100 Hz • stereo; 28.62 MB (30 010 364 B)] 07 Вселенной.m4a [03:43.360; ALAC • 965 kbps • 16 bit \ 44100 Hz • stereo; 25.72 MB (26 966 436 B)] 08 Один.m4a [02:30.773; ALAC • 774 kbps • 16 bit \ 44100 Hz • stereo; 13.92 MB (14 600 086 B)] 09 Океан.m4a [04:17.760; ALAC • 884 kbps • 16 bit \ 44100 Hz • stereo; 27.19 MB (28 511 257 B)] 10 Двое.m4a [04:16.813; ALAC • 933 kbps • 16 bit \ 44100 Hz • stereo; 28.59 MB (29 981 806 B)]
Accuracy: -m0
File 01 Маклауд - 95% MPEG [05:02:70]
Detected average hi-boundary frequency : 21255.100 Hz Detected average lo-boundary frequency : 18970.690 Hz Detected average hi-cut frequency : 21495.360 Hz Detected average lo-cut frequency : 18286.350 Hz Maximum probablis boundary frequency : 21622.000 Hz Coefficient of nonlinearity of a phase : 0.02912426 First order smothness : 0.75659100 Second order smothness : 0.53188230
File 02 Не верь хайпу! - 95% MPEG [03:56:61]
Detected average hi-boundary frequency : 21527.150 Hz Detected average lo-boundary frequency : 20282.710 Hz Detected average hi-cut frequency : 21686.880 Hz Detected average lo-cut frequency : 20469.830 Hz Maximum probablis boundary frequency : 21676.000 Hz Coefficient of nonlinearity of a phase : 0.04879769 First order smothness : 0.82117650 Second order smothness : 0.57843140
File 03 Молодой король - 73% MPEG [04:28:31]
Detected average hi-boundary frequency : 21487.830 Hz Detected average lo-boundary frequency : 20172.820 Hz Detected average hi-cut frequency : 21668.220 Hz Detected average lo-cut frequency : 20052.510 Hz Maximum probablis boundary frequency : 21660.000 Hz Coefficient of nonlinearity of a phase : 0.06543498 First order smothness : 0.81591700 Second order smothness : 0.56505190
File 04 Проклятый рэп! - 95% MPEG [02:40:15]
Detected average hi-boundary frequency : 21533.530 Hz Detected average lo-boundary frequency : 20130.740 Hz Detected average hi-cut frequency : 21689.010 Hz Detected average lo-cut frequency : 20005.020 Hz Maximum probablis boundary frequency : 21660.000 Hz Coefficient of nonlinearity of a phase : 0.04672814 First order smothness : 0.83420290 Second order smothness : 0.56869570
File 05 Московский бум - 100% CDDA [03:49:74]
Detected average hi-boundary frequency : 21421.950 Hz Detected average lo-boundary frequency : 19713.390 Hz Detected average hi-cut frequency : 21659.910 Hz Detected average lo-cut frequency : 20004.000 Hz Maximum probablis boundary frequency : 21638.000 Hz Coefficient of nonlinearity of a phase : 0.06128916 First order smothness : 0.76826810 Second order smothness : 0.56237380
File 06 Бандит - 100% CDDA [04:29:60]
Detected average hi-boundary frequency : 21272.220 Hz Detected average lo-boundary frequency : 19432.940 Hz Detected average hi-cut frequency : 21636.490 Hz Detected average lo-cut frequency : 17645.010 Hz Maximum probablis boundary frequency : 21611.000 Hz Coefficient of nonlinearity of a phase : 0.05945929 First order smothness : 0.71772810 Second order smothness : 0.50430290
File 07 Вселенной - 79% MPEG [03:43:27]
Detected average hi-boundary frequency : 21486.530 Hz Detected average lo-boundary frequency : 20147.240 Hz Detected average hi-cut frequency : 21711.450 Hz Detected average lo-cut frequency : 19973.720 Hz Maximum probablis boundary frequency : 21665.000 Hz Coefficient of nonlinearity of a phase : 0.10895110 First order smothness : 0.77671520 Second order smothness : 0.64158000
File 08 Один - 95% MPEG [02:30:58]
Detected average hi-boundary frequency : 21210.710 Hz Detected average lo-boundary frequency : 18296.870 Hz Detected average hi-cut frequency : 21552.700 Hz Detected average lo-cut frequency : 15883.960 Hz Maximum probablis boundary frequency : 21649.000 Hz Coefficient of nonlinearity of a phase : 0.04800531 First order smothness : 0.77668110 Second order smothness : 0.53423810
File 09 Океан - 95% MPEG [04:17:57]
Detected average hi-boundary frequency : 21352.470 Hz Detected average lo-boundary frequency : 19628.350 Hz Detected average hi-cut frequency : 21652.550 Hz Detected average lo-cut frequency : 18890.360 Hz Maximum probablis boundary frequency : 21638.000 Hz Coefficient of nonlinearity of a phase : 0.02972974 First order smothness : 0.76283440 Second order smothness : 0.54085320
File 10 Двое - 98% MPEG [04:16:61]
Detected average hi-boundary frequency : 21584.320 Hz Detected average lo-boundary frequency : 20286.690 Hz Detected average hi-cut frequency : 21727.600 Hz Detected average lo-cut frequency : 20597.140 Hz Maximum probablis boundary frequency : 21692.000 Hz Coefficient of nonlinearity of a phase : 0.11427980 First order smothness : 0.83266640 Second order smothness : 0.70461990
————— Summary: —————These tracks looks like CDDA with probability 100%.————————————————————————————————————————————————————————————————————————
ANALYZER: auCDtect: CD records authenticity detector, version 0.8.2 Copyright (c) 2004 Oleg Berngardt. All rights reserved. Copyright (c) 2004 Alexander Djourik. All rights reserved.
Time elapsed: 1 m 36 sLog created at October 12, 2018 10:12:44
=== 96D85C05379245367B5E928747588523C86CE51652968DD9CB3E2433CFDD8A72 ===

Скриншот(ы) тегов iTunes

Об альбоме (сборнике)

За почти 25-летнюю карьеру, Лигалайз смог добиться всего того, о чем многие рэперы в нашей стране даже бояться мечтать: широкие ротации, признание от людей во всех сферах шоу-бизнеса, весомые награды, хорошие продажи альбомов, забитый концертный график и, конечно, возможность длительного нахождения в музыке. При всем этом трудно поверить, что сейчас перед нами только третья сольная пластинка Лиги.
Новая пластинка полностью сольная. Кажется, именно такой релиз от Лиги ждет большая часть аудитории уже многие годы. Ну, а качество самого материала можно оценить уже сейчас! Спойлер: никакого «олд скула».


[islamvillage.com]_t_5627557.torrent
Торрент: Зарегистрирован ·  [ 2018-10-17 22:49 ] ·  9b4bad32dd311e803d76a6764c8078c93290f21e

17 KB

Статус: проверено
Скачан: 1 раз
Размер: 384 MB
Оценка: 
(Голосов: 0)
Сказали спасибо: 0  Спасибо
Похожие темы
[Профиль]    [ЛС]
Показать сообщения:    
Ответить на тему

Текущее время: Сегодня 19:03

Часовой пояс: GMT + 7



Вы не можете начинать темы
Вы не можете отвечать на сообщения
Вы не можете редактировать свои сообщения
Вы не можете удалять свои сообщения
Вы не можете голосовать в опросах
Вы не можете прикреплять файлы к сообщениям
Вы можете скачивать файлы


Condition Mom – Sugar Mom ( 18+ ) | Are kara, Kimi wa... | Kimisumi.E02.720p.FIX字幕侠