(JRock) [CDM] Leetspeak monsters - This is Halloween (Regular Edition) - 2018, FLAC (tracks+.cue), lossless

Ответить на тему
Статистика раздачи [Обновить пиров]
Размер:  65 MB   |    Зарегистрирован:  2 месяца 10 дней   |    Скачан:  0 раз

Полного источника не было: Никогда

 
   
 
 
 
Автор Сообщение

islamvillage.com

Создавать темы 05-Ноя-2018 19:40

[Цитировать]

Leetspeak monsters / This is Halloween (Regular Edition)
Жанр: JRock
Носитель: CDM
Страна-производитель диска (релиза): Japan
Год издания: 2018
Издатель (лейбл): GLK MUSIC
Номер по каталогу: GLK-065
Страна исполнителя (группы): Japan
Аудиокодек: FLAC (*.flac)
Тип рипа: tracks+.cue
Битрейт аудио: lossless
Продолжительность: 00:08:31
Источник (релизер): собственный диск
Наличие сканов в содержимом раздачи: нет
Треклист:
1. This is Halloween
2. The Beginnig
3. Jack-o'-Lantern

Лог создания рипа

Exact Audio Copy V1.3 from 2. September 2016
EAC extraction logfile from 30. October 2018, 18:24
Leetspeak monsters / This is Halloween
Used drive : PIONEER BD-RW BDR-209D Adapter: 1 ID: 0
Read mode : SecureUtilize accurate stream : YesDefeat audio cache : YesMake use of C2 pointers : No
Read offset correction : 667Overread into Lead-In and Lead-Out : NoFill up missing offset samples with silence : YesDelete leading and trailing silent blocks : NoNull samples used in CRC calculations : YesUsed interface : Native Win32 interface for Win NT & 2000Gap handling : Appended to previous track
Used output format : User Defined EncoderSelected bitrate : 896 kBit/sQuality : HighAdd ID3 tag : NoCommand line compressor : C:\Program Files (x86)\Exact Audio Copy\Flac\flac.exeAdditional command line options : -V -8 -T "Genre=%genre%" -T "Artist=%artist%" -T "Title=%title%" -T "Album=%albumtitle%" -T "Date=%year%" -T "Tracknumber=%tracknr%" -T "Comment=%comment%" %source%
TOC of the extracted CD
Track | Start | Length | Start sector | End sector --------------------------------------------------------- 1 | 0:00.00 | 3:16.00 | 0 | 14699 2 | 3:16.00 | 1:39.00 | 14700 | 22124 3 | 4:55.00 | 3:36.00 | 22125 | 38324
Track 1
Filename D:\Flac\Новая папка\01 This is Halloween.wav
Pre-gap length 0:00:02.00
Peak level 100.0 % Extraction speed 4.5 X Track quality 100.0 % Test CRC 5E03C6A3 Copy CRC 5E03C6A3 Copy OK
Track 2
Filename D:\Flac\Новая папка\02 The Beginning.wav
Pre-gap length 0:00:02.00
Peak level 100.0 % Extraction speed 4.2 X Track quality 100.0 % Test CRC 12AAF0D7 Copy CRC 12AAF0D7 Copy OK
Track 3
Filename D:\Flac\Новая папка\03 Jack-o'-Lantern.wav
Pre-gap length 0:00:02.00
Peak level 100.0 % Extraction speed 5.2 X Track quality 100.0 % Test CRC 6A42FA7E Copy CRC 6A42FA7E Copy OK
No errors occurred
End of status report
==== Log checksum B6274D2F34A050ED0708C05E24408DDE83E25765FDEC47EDF9B1F048C3A5B20F ====

Содержание индексной карты (.CUE)

REM GENRE "Gothic Rock"REM DATE 2018REM DISCID 2601FF03REM COMMENT "ExactAudioCopy v1.3"PERFORMER "Leetspeak monsters"TITLE "This is Halloween"REM COMPOSER ""FILE "01 This is Halloween.wav" WAVE TRACK 01 AUDIO TITLE "This is Halloween" PERFORMER "Leetspeak monsters" REM COMPOSER "" FLAGS DCP INDEX 01 00:00:00 TRACK 02 AUDIO TITLE "The Beginning" PERFORMER "Leetspeak monsters" REM COMPOSER "" FLAGS DCP INDEX 00 03:14:00FILE "02 The Beginning.wav" WAVE INDEX 01 00:00:00 TRACK 03 AUDIO TITLE "Jack-o'-Lantern" PERFORMER "Leetspeak monsters" REM COMPOSER "" FLAGS DCP INDEX 00 01:37:00FILE "03 Jack-o'-Lantern.wav" WAVE INDEX 01 00:00:00


[islamvillage.com]_t_5636990.torrent
Торрент: Зарегистрирован ·  [ 2018-11-05 19:36 ] ·  8c0db55c811f4f0f5a99923e3684c5940b277f07

11 KB

Статус: проверено
Скачан: 0 раз
Размер: 65 MB
Оценка: 
(Голосов: 0)
Сказали спасибо: 0  Спасибо
Похожие темы
[Профиль]    [ЛС]
Показать сообщения:    
Ответить на тему

Текущее время: Сегодня 14:49

Часовой пояс: GMT + 7



Вы не можете начинать темы
Вы не можете отвечать на сообщения
Вы не можете редактировать свои сообщения
Вы не можете удалять свои сообщения
Вы не можете голосовать в опросах
Вы не можете прикреплять файлы к сообщениям
Вы можете скачивать файлы


Raambo 2 | Nhạc truyền thống | Holzpuppe