(JRock) [CD] The THIRTEEN - LAMENT (Type C) - 2018, FLAC (tracks+.cue), lossless

Ответить на тему
Статистика раздачи [Обновить пиров]
Размер:  204 MB   |    Зарегистрирован:  2 месяца 10 дней   |    Скачан:  0 раз

Полного источника не было: Никогда

 
   
 
 
 
Автор Сообщение

islamvillage.com

Создавать темы 05-Ноя-2018 19:40

[Цитировать]

The THIRTEEN / LAMENT (Type C)
Жанр: JRock
Носитель: CD
Страна-производитель диска (релиза): Japan
Год издания: 2018
Издатель (лейбл): CREEDY RECORDS
Номер по каталогу: CR13-0020
Страна исполнителя (группы): Japan
Аудиокодек: FLAC (*.flac)
Тип рипа: tracks+.cue
Битрейт аудио: lossless
Продолжительность: 00:26:48
Источник (релизер): собственный диск
Наличие сканов в содержимом раздачи: нет
Треклист:
1 Angelic grief
2 Rhapsody in Blue
3 Lament
4 the depths of despair
5 Erode
6 umbrella

Лог создания рипа

Exact Audio Copy V1.3 from 2. September 2016
EAC extraction logfile from 30. October 2018, 19:19
The THIRTEEN / LAMENT (Type C)
Used drive : PIONEER BD-RW BDR-209D Adapter: 1 ID: 0
Read mode : SecureUtilize accurate stream : YesDefeat audio cache : YesMake use of C2 pointers : No
Read offset correction : 667Overread into Lead-In and Lead-Out : NoFill up missing offset samples with silence : YesDelete leading and trailing silent blocks : NoNull samples used in CRC calculations : YesUsed interface : Native Win32 interface for Win NT & 2000Gap handling : Appended to previous track
Used output format : User Defined EncoderSelected bitrate : 896 kBit/sQuality : HighAdd ID3 tag : NoCommand line compressor : C:\Program Files (x86)\Exact Audio Copy\Flac\flac.exeAdditional command line options : -V -8 -T "Genre=%genre%" -T "Artist=%artist%" -T "Title=%title%" -T "Album=%albumtitle%" -T "Date=%year%" -T "Tracknumber=%tracknr%" -T "Comment=%comment%" %source%
TOC of the extracted CD
Track | Start | Length | Start sector | End sector --------------------------------------------------------- 1 | 0:00.00 | 3:57.71 | 0 | 17845 2 | 3:57.71 | 3:47.16 | 17846 | 34886 3 | 7:45.12 | 5:25.54 | 34887 | 59315 4 | 13:10.66 | 4:41.72 | 59316 | 80462 5 | 17:52.63 | 3:30.01 | 80463 | 96213 6 | 21:22.64 | 5:26.01 | 96214 | 120664
Track 1
Filename D:\Flac\Новая папка\01 Angelic grief.wav
Pre-gap length 0:00:02.00
Peak level 100.0 % Extraction speed 4.9 X Track quality 100.0 % Test CRC B5097EBE Copy CRC B5097EBE Copy OK
Track 2
Filename D:\Flac\Новая папка\02 Rhapsody in Blue.wav
Pre-gap length 0:00:00.48
Peak level 100.0 % Extraction speed 5.3 X Track quality 100.0 % Test CRC 20E5173D Copy CRC 20E5173D Copy OK
Track 3
Filename D:\Flac\Новая папка\03 Lament.wav
Pre-gap length 0:00:00.20
Peak level 100.0 % Extraction speed 5.5 X Track quality 99.9 % Test CRC A914DE23 Copy CRC A914DE23 Copy OK
Track 4
Filename D:\Flac\Новая папка\04 the depths of despair.wav
Pre-gap length 0:00:00.62
Peak level 100.0 % Extraction speed 6.3 X Track quality 100.0 % Test CRC 8E02BEA1 Copy CRC 8E02BEA1 Copy OK
Track 5
Filename D:\Flac\Новая папка\05 Erode.wav
Pre-gap length 0:00:00.33
Peak level 100.0 % Extraction speed 6.5 X Track quality 100.0 % Test CRC 72BC7F5E Copy CRC 72BC7F5E Copy OK
Track 6
Filename D:\Flac\Новая папка\06 umbrella.wav
Pre-gap length 0:00:02.00
Peak level 100.0 % Extraction speed 6.6 X Track quality 99.9 % Test CRC FF003BAE Copy CRC FF003BAE Copy OK
No errors occurred
End of status report
==== Log checksum AA3CAB232234CAD796AFC81D65C0D04D8876FB4B88A036A48F66D40480BB4A81 ====

Содержание индексной карты (.CUE)

REM GENRE JRockREM DATE 2018REM DISCID 4E064806REM COMMENT "ExactAudioCopy v1.3"PERFORMER "The THIRTEEN"TITLE "LAMENT (Type C)"REM COMPOSER ""FILE "01 Angelic grief.wav" WAVE TRACK 01 AUDIO TITLE "Angelic grief" PERFORMER "The THIRTEEN" REM COMPOSER "" INDEX 01 00:00:00 TRACK 02 AUDIO TITLE "Rhapsody in Blue " PERFORMER "The THIRTEEN" REM COMPOSER "" INDEX 00 03:57:23FILE "02 Rhapsody in Blue.wav" WAVE INDEX 01 00:00:00 TRACK 03 AUDIO TITLE "Lament" PERFORMER "The THIRTEEN" REM COMPOSER "" INDEX 00 03:46:71FILE "03 Lament.wav" WAVE INDEX 01 00:00:00 TRACK 04 AUDIO TITLE "the depths of despair" PERFORMER "The THIRTEEN" REM COMPOSER "" INDEX 00 05:24:67FILE "04 the depths of despair.wav" WAVE INDEX 01 00:00:00 TRACK 05 AUDIO TITLE "Erode " PERFORMER "The THIRTEEN" REM COMPOSER "" INDEX 00 04:41:39FILE "05 Erode.wav" WAVE INDEX 01 00:00:00 TRACK 06 AUDIO TITLE "umbrella" PERFORMER "The THIRTEEN" REM COMPOSER "" INDEX 00 03:28:01FILE "06 umbrella.wav" WAVE INDEX 01 00:00:00


[islamvillage.com]_t_5636978.torrent
Торрент: Зарегистрирован ·  [ 2018-11-05 19:36 ] ·  636a8fd8e797c53334e17ed14c329a9dbfa30484

17 KB

Статус: проверено
Скачан: 0 раз
Размер: 204 MB
Оценка: 
(Голосов: 0)
Сказали спасибо: 0  Спасибо
Похожие темы
[Профиль]    [ЛС]
Показать сообщения:    
Ответить на тему

Текущее время: Сегодня 15:43

Часовой пояс: GMT + 7



Вы не можете начинать темы
Вы не можете отвечать на сообщения
Вы не можете редактировать свои сообщения
Вы не можете удалять свои сообщения
Вы не можете голосовать в опросах
Вы не можете прикреплять файлы к сообщениям
Вы можете скачивать файлы


Drontal for Cats Genuine Bayer 8 Tablets Dewormer Allworms Round and Tap Worm | All Movies | Resonate